<?xml version="1.0" standalone="no"?>
<!DOCTYPE svg PUBLIC "-//W3C//DTD SVG 1.1//EN" "http://www.w3.org/Graphics/SVG/1.1/DTD/svg11.dtd" >
<svg xmlns="http://www.w3.org/2000/svg">
<metadata>
<json>
<![CDATA[
{
	"fontFamily": "Vaadin-Icons",
	"majorVersion": 1,
	"minorVersion": 0,
	"description": "Vaadin Icons\nFont generated by IcoMoon.",
	"license": "CC-BY license",
	"licenseURL": "https://creativecommons.org/licenses/by/4.0/",
	"fontURL": "https://vaadin.com/icons",
	"copyright": "Vaadin Ltd",
	"designer": "Jarmo Kemppainen",
	"version": "Version 1.0",
	"fontId": "Vaadin-Icons",
	"psName": "Vaadin-Icons",
	"subFamily": "Regular",
	"fullName": "Vaadin-Icons"
}
]]>
</json>
</metadata>
<defs>
<font id="Vaadin-Icons" horiz-adv-x="1024">
<font-face units-per-em="1024" ascent="960" descent="-64" />
<missing-glyph horiz-adv-x="1024" />
<glyph unicode="&#x20;" horiz-adv-x="512" d="" />
<glyph unicode="&#xe600;" glyph-name="book-dollar" data-tags="book-dollar" d="M825.6 800c-102.4 76.8-89.6 160-89.6 160h-608v-800c0-121.6 134.4-224 256-224h512v832c0 0-51.2 12.8-70.4 32zM448 556.8c-57.6 19.2-147.2 51.2-147.2 121.6 6.4 51.2 83.2 89.6 83.2 102.4v51.2h64v-44.8c64-6.4 115.2-25.6 121.6-25.6l-19.2-57.6c0 0-44.8 19.2-96 19.2-44.8 0-70.4-19.2-76.8-51.2 0-19.2 32-38.4 83.2-57.6 96-32 121.6-70.4 121.6-121.6 0-44.8-6.4-102.4-134.4-115.2v-57.6h-64v51.2c0 6.4-89.6 32-96 32l32 57.6c0 0 70.4-32 128-25.6s83.2 38.4 83.2 64c6.4 19.2-25.6 38.4-83.2 57.6zM832 0h-448c-64 0-115.2 38.4-128 83.2-6.4 19.2 0 44.8 25.6 44.8h422.4v659.2c64-38.4 128-70.4 128-83.2v-704z" />
<glyph unicode="&#xe601;" glyph-name="book-percent" data-tags="book-percent" d="M806.4 800c-102.4 76.8-102.4 160-102.4 160h-576v-800c0-121.6 102.4-224 224-224h544v832c0 0-64 12.8-89.6 32zM352 755.2c51.2 0 96-44.8 96-102.4s-44.8-89.6-96-89.6-96 38.4-96 89.6 44.8 102.4 96 102.4zM576 768h64l-320-448h-64l320 448zM640 416c0-51.2-44.8-96-96-96s-96 44.8-96 96 44.8 96 96 96 96-44.8 96-96zM832 0h-480c-64 0-115.2 38.4-128 83.2-6.4 25.6 0 44.8 25.6 44.8h454.4v659.2c0-38.4 64-70.4 128-83.2v-704zM576 416c0-17.673-14.327-32-32-32s-32 14.327-32 32c0 17.673 14.327 32 32 32s32-14.327 32-32zM384 652.8c0-17.673-14.327-32-32-32s-32 14.327-32 32c0 17.673 14.327 32 32 32s32-14.327 32-32z" />
<glyph unicode="&#xe602;" glyph-name="briefcase" data-tags="briefcase" d="M704 768v128h-384v-128h-320v-768h1024v768h-320zM640 768h-256v64h256v-64z" />
<glyph unicode="&#xe603;" glyph-name="plus-minus" data-tags="plus-minus" d="M640 512h384v-128h-384v128zM256 640h-128v-128h-128v-128h128v-128h128v128h128v128h-128zM384 832l192-768h64l-192 768z" />
<glyph unicode="&#xe604;" glyph-name="calendar-briefcase" data-tags="calendar-briefcase" d="M192 960h64v-192h-64v192zM704 960h64v-192h-64v192zM832 896v-192h-192v192h-320v-192h-192v192h-128v-896h320v64h-256v512h832v-192h64v512zM832 320v128h-256v-128h-192v-384h640v384h-192zM640 384h128v-64h-128v64z" />
<glyph unicode="&#xe605;" glyph-name="calendar-clock" data-tags="calendar-clock" d="M192 960h64v-192h-64v192zM704 960h64v-192h-64v192zM422.4 64h-358.4v512h832v-38.4c25.6-12.8 44.8-25.6 64-44.8v403.2h-128v-192h-192v192h-320v-192h-192v192h-128v-896h467.2c-19.2 19.2-32 38.4-44.8 64zM896 192h-192v192h64v-128h128zM736 448c121.6 0 224-102.4 224-224s-102.4-224-224-224-224 102.4-224 224 102.4 224 224 224zM736 512c-160 0-288-128-288-288s128-288 288-288 288 128 288 288-128 288-288 288v0z" />
<glyph unicode="&#xe606;" glyph-name="calendar-user" data-tags="calendar-user" d="M192 960h64v-192h-64v192zM704 960h64v-192h-64v192zM576 57.6c0 6.4 0 6.4 0 0l-512 6.4v512h832v-76.8c25.6-6.4 44.8-19.2 64-38.4v435.2h-128v-192h-192v192h-320v-192h-192v192h-128v-896h576v57.6zM960 320c0-70.692-57.308-128-128-128s-128 57.308-128 128c0 70.692 57.308 128 128 128s128-57.308 128-128zM889.6 192h-115.2c-70.4 0-134.4-57.6-134.4-134.4v-121.6h384v121.6c0 76.8-57.6 134.4-134.4 134.4z" />
<glyph unicode="&#xe607;" glyph-name="dental-chair" data-tags="dental-chair" d="M736 435.2c-19.2 6.4-38.4 12.8-51.2 12.8h-172.8v64h192c0 38.4-25.6 64-64 64h-256c0-38.4 25.6-64 64-64v-64c-32 0-64 12.8-76.8 38.4l-70.4 115.2c-19.2 25.6-44.8 38.4-70.4 38.4h-38.4v44.8c0 19.2-6.4 32-12.8 51.2l-19.2 44.8c-19.2 32-57.6 51.2-96 51.2h-64l320-448c25.6-38.4 70.4-64 115.2-64h76.8v-64h-64v-128h-38.4c-57.6 0-115.2-25.6-153.6-64v0h-64v-64h704v64h-64c-38.4 38.4-96 64-153.6 64h-38.4v128h-64v64h102.4c12.8 0 32-6.4 44.8-12.8l108.8-57.6c57.6-32 128-32 185.6 0h6.4l-288 185.6z" />
<glyph unicode="&#xe608;" glyph-name="doctor-briefcase" data-tags="doctor-briefcase" d="M1024 192l-89.6 428.8c-12.8 44.8-57.6 83.2-108.8 83.2h-121.6v76.8c0 64-51.2 115.2-115.2 115.2h-153.6c-64 0-115.2-51.2-115.2-115.2v-76.8h-121.6c-51.2 0-96-38.4-108.8-83.2l-89.6-428.8c-12.8-64 38.4-128 108.8-128h800c76.8 0 128 64 115.2 128zM384 780.8c0 25.6 25.6 51.2 51.2 51.2h153.6c25.6 0 51.2-25.6 51.2-51.2v-76.8h-256v76.8zM704 320h-128v-128h-128v128h-128v128h128v128h128v-128h128v-128z" />
<glyph unicode="&#xe609;" glyph-name="doctor" data-tags="doctor" d="M896 236.8c-64 121.6-128 102.4-198.4 108.8 6.4-19.2 6.4-38.4 6.4-64 102.4-25.6 128-147.2 128-217.6v-64h-128v64h64c0 0 0 160-96 160s-96-153.6-96-160h64v-64h-128v64c0 70.4 25.6 198.4 128 217.6 0 38.4-6.4 70.4-12.8 83.2-12.8 6.4-25.6 19.2-25.6 38.4 0 38.4 51.2 25.6 89.6 96 0 0 57.6 147.2 38.4 275.2h-64c0 12.8 6.4 19.2 6.4 32s0 19.2-6.4 32h51.2c-19.2 64-83.2 121.6-204.8 121.6 0 0 0 0 0 0s0 0 0 0 0 0 0 0c-121.6 0-185.6-57.6-211.2-128h51.2c0-12.8-6.4-19.2-6.4-32s0-19.2 6.4-32h-64c-12.8-128 38.4-275.2 38.4-275.2 38.4-64 89.6-51.2 89.6-96 0-32-32-44.8-70.4-51.2-12.8-12.8-25.6-38.4-25.6-89.6 0-25.6 0-51.2 0-76.8 38.4-12.8 64-51.2 64-89.6 0-44.8-44.8-89.6-96-89.6s-96 44.8-96 96c0 44.8 25.6 76.8 64 89.6 0 19.2 0 44.8 0 76.8s6.4 57.6 12.8 83.2c-44.8-6.4-96-25.6-140.8-108.8-38.4-70.4-57.6-300.8-57.6-300.8h876.8c6.4 0-12.8 230.4-51.2 300.8zM416 800c0 51.2 44.8 96 96 96s96-44.8 96-96-44.8-96-96-96-96 44.8-96 96zM320 96c0-17.673-14.327-32-32-32s-32 14.327-32 32c0 17.673 14.327 32 32 32s32-14.327 32-32z" />
<glyph unicode="&#xe60a;" glyph-name="dollar" data-tags="dollar" d="M524.8 524.8c-6.4 0-6.4 6.4-12.8 6.4v198.4c76.8-6.4 140.8-38.4 140.8-38.4l57.6 115.2c-6.4 0-96 51.2-198.4 51.2v102.4h-64v-102.4c-51.2-12.8-89.6-32-128-57.6-38.4-38.4-64-89.6-64-147.2 0-44.8 12.8-147.2 192-230.4v-249.6c-57.6 12.8-128 44.8-153.6 57.6l-64-108.8c12.8-6.4 115.2-64 217.6-76.8v-108.8h64v108.8c0 0 0 0 0 0 147.2 19.2 230.4 134.4 230.4 243.2 0 96-64 172.8-217.6 236.8zM448 563.2c-51.2 32-64 64-64 83.2 0 25.6 6.4 44.8 25.6 57.6 12.8 6.4 25.6 12.8 38.4 19.2v-160zM512 172.8v217.6c70.4-32 102.4-70.4 102.4-102.4 0-38.4-19.2-102.4-102.4-115.2z" />
<glyph unicode="&#xe60b;" glyph-name="exit-o" data-tags="exit-o" d="M640 960c70.4 0 128-57.6 128-128 0-57.6-38.4-108.8-96-121.6 0 0 0-6.4 0-6.4 25.6 0 44.8-12.8 64-32l83.2-83.2c6.4-6.4 19.2-12.8 32-12.8h108.8v384h-320zM755.2 32l-243.2 288v-160c0-51.2-44.8-96-96-96h-224c-38.4 0-64 25.6-64 64s25.6 64 64 64h160c19.2 0 32 12.8 32 32v128c0 44.8 6.4 83.2 25.6 128l44.8 96h-51.2c-32 0-57.6-12.8-76.8-38.4l-32-44.8c-12.8-25.6-44.8-32-76.8-19.2-25.6 19.2-38.4 57.6-12.8 83.2l38.4 51.2c44.8 64 121.6 96 198.4 96h128l6.4 19.2c-38.4 19.2-64 64-64 108.8 0 70.4 57.6 128 128 128h-448v-313.6l-38.4-51.2c-19.2-25.6-32-57.6-25.6-96 6.4-32 25.6-64 57.6-83.2 0 0 0 0 0 0v-160c-70.4 0-128-57.6-128-128s57.6-128 128-128v-64h742.4c-70.4 0-134.4 38.4-172.8 96zM729.6 492.8l-44.8 51.2-38.4-96c-12.8-32-19.2-57.6 0-83.2l313.6-390.4v473.6h-134.4c-38.4 0-70.4 12.8-96 44.8z" />
<glyph unicode="&#xe60c;" glyph-name="exit" data-tags="exit" d="M896 576h-108.8c-12.8 0-25.6 6.4-38.4 12.8l-83.2 83.2c-12.8 19.2-38.4 32-70.4 32h-19.2c70.4 0 128 57.6 128 128s-57.6 128-128 128-128-57.6-128-128c0-44.8 25.6-89.6 64-108.8l-12.8-19.2h-128c-70.4 0-147.2-32-192-96l-38.4-51.2c-25.6-25.6-12.8-64 12.8-83.2 25.6-12.8 57.6-6.4 76.8 19.2l32 44.8c19.2 25.6 44.8 38.4 76.8 38.4h51.2l-44.8-102.4c-19.2-38.4-25.6-76.8-25.6-121.6v-128c0-19.2-12.8-32-32-32h-160c-38.4 0-64-25.6-64-64s25.6-64 64-64h224c51.2 0 96 44.8 96 96v160l243.2-288c38.4-57.6 108.8-96 179.2-96h57.6l-345.6 428.8c-19.2 25.6-12.8 51.2 0 83.2l38.4 96 44.8-51.2c25.6-25.6 64-44.8 102.4-44.8h128c38.4 0 64 25.6 64 64s-25.6 64-64 64z" />
<glyph unicode="&#xe60d;" glyph-name="golf" data-tags="golf" d="M448 832c0-70.692-57.308-128-128-128s-128 57.308-128 128c0 70.692 57.308 128 128 128s128-57.308 128-128zM627.2 844.8c-12.8 32-108.8 6.4-128-32-12.8-19.2-12.8-76.8-76.8-121.6-51.2-32-102.4-32-102.4-32-19.2-38.4-6.4-70.4 12.8-102.4 32-57.6 38.4-115.2 44.8-179.2 6.4-83.2-32-153.6-147.2-204.8-51.2-19.2-83.2-57.6-64-121.6 0 0 128 19.2 198.4 76.8 96 76.8 115.2 147.2 115.2 147.2s6.4-44.8 0-121.6c-6.4-64-12.8-96-25.6-140.8s19.2-76.8 57.6-76.8 64 25.6 64 64l19.2 121.6c19.2 134.4 0 275.2-51.2 403.2 0 6.4-6.4 6.4-6.4 12.8-38.4 102.4 12.8 166.4 38.4 192 19.2 25.6 76.8 76.8 51.2 115.2zM768 960v-640h64v384l192 128zM1024 320c0-35.346-28.654-64-64-64s-64 28.654-64 64c0 35.346 28.654 64 64 64s64-28.654 64-64zM64 422.4l236.8 236.8-44.8 19.2-243.2-230.4c0 0-25.6-44.8 6.4-108.8s102.4-19.2 102.4-19.2c25.6 12.8 12.8 25.6 0 38.4s-57.6 64-57.6 64z" />
<glyph unicode="&#xe60e;" glyph-name="group" data-tags="group" d="M320-64v339.2c-38.4 19.2-64 64-64 108.8v256c0 44.8 25.6 83.2 64 108.8 0 6.4 0 12.8 0 19.2 0 70.4-57.6 128-128 128s-128-57.6-128-128c0-70.4 57.6-128 128-128h-128c-32 0-64-32-64-64v-256c0-32 32-64 64-64v-320h256zM960 640h-128c70.4 0 128 57.6 128 128s-57.6 128-128 128-128-57.6-128-128c0-6.4 0-12.8 0-19.2 38.4-25.6 64-64 64-108.8v-256c0-44.8-25.6-89.6-64-108.8v-339.2h256v320c32 0 64 32 64 64v256c0 32-32 64-64 64zM640 832c0-70.692-57.308-128-128-128s-128 57.308-128 128c0 70.692 57.308 128 128 128s128-57.308 128-128zM640 704h-256c-32 0-64-32-64-64v-256c0-32 32-64 64-64v-384h256v384c32 0 64 32 64 64v256c0 32-32 64-64 64z" />
<glyph unicode="&#xe60f;" glyph-name="health-card" data-tags="health-card" d="M960 768v-640h-896v640h896zM1024 832h-1024v-768h1024v768zM576 640h320v-64h-320v64zM576 512h320v-64h-320v64zM576 384h128v-64h-128v64zM416 640c0 0 0 0 0 0-38.4 0-70.4-38.4-96-64-25.6 25.6-57.6 64-96 64 0 0 0 0 0 0-96 0-134.4-121.6-64-185.6l160-134.4 160 134.4c70.4 64 32 185.6-64 185.6z" />
<glyph unicode="&#xe610;" glyph-name="invoice" data-tags="invoice" d="M281.6 307.2c-38.4-6.4-89.6 19.2-108.8 25.6l-32-57.6c0 0 57.6-25.6 108.8-32v-51.2h64v57.6c57.6 19.2 89.6 70.4 96 115.2 0 51.2-38.4 89.6-121.6 121.6-25.6 12.8-70.4 32-70.4 57.6 0 32 25.6 51.2 64 51.2 44.8 0 89.6-19.2 89.6-19.2l25.6 57.6c0 0-32 12.8-76.8 25.6v44.8h-64v-44.8c-57.6-12.8-96-51.2-102.4-108.8 0-76.8 83.2-108.8 115.2-121.6 38.4-12.8 83.2-38.4 83.2-57.6 0-25.6-25.6-57.6-70.4-64zM0 832v-768h1024v768h-1024zM960 128h-896v640h896v-640zM512 640h384v-64h-384v64zM512 512h384v-64h-384v64zM512 384h192v-64h-192v64z" />
<glyph unicode="&#xe611;" glyph-name="level-down-bold" data-tags="level-down-bold" d="M576-64l256 448h-192v576h-448l128-192h128v-384h-192z" />
<glyph unicode="&#xe612;" glyph-name="level-left-bold" data-tags="level-left-bold" d="M0 512l448 256v-192h576v-448l-192 128v128h-384v-192z" />
<glyph unicode="&#xe613;" glyph-name="level-up-bold" data-tags="level-up-bold" d="M576 960l256-448h-192v-576h-448l128 192h128v384h-192z" />
<glyph unicode="&#xe614;" glyph-name="out" data-tags="out" d="M224 448c19.2 0 32-12.8 32-32v-128c0-19.2-12.8-32-32-32s-32 12.8-32 32v128c0 19.2 12.8 32 32 32v0zM224 512v0c-51.2 0-96-44.8-96-96v-128c0-51.2 44.8-96 96-96v0c51.2 0 96 44.8 96 96v128c0 51.2-44.8 96-96 96v0zM512 512v-224c0-19.2-12.8-32-32-32s-32 12.8-32 32v224h-64v-224c0-51.2 44.8-96 96-96v0c51.2 0 96 44.8 96 96v224h-64zM832 512h-192v-64h64v-256h64v256h64zM960 576v64h-153.6l-236.8 192c6.4 12.8 6.4 19.2 6.4 32 0 51.2-44.8 96-96 96s-96-44.8-96-96c0-12.8 0-19.2 6.4-32l-236.8-192h-153.6v-576h64v-64h960v576h-64zM428.8 780.8c19.2-6.4 32-12.8 51.2-12.8s32 6.4 51.2 12.8l172.8-140.8h-448l172.8 140.8zM896 128h-832v448h832v-448z" />
<glyph unicode="&#xe615;" glyph-name="pill" data-tags="pill" d="M947.2 870.4l-12.8 12.8c-44.8 51.2-115.2 76.8-179.2 76.8s-134.4-25.6-185.6-76.8l-492.8-492.8c-102.4-102.4-102.4-262.4 0-364.8l12.8-12.8c44.8-51.2 115.2-76.8 179.2-76.8s134.4 25.6 185.6 76.8l499.2 499.2c96 96 96 262.4-6.4 358.4zM902.4 550.4l-249.6-249.6-224 230.4-243.2-243.2c-70.4-70.4-70.4-160-64-224v0c-76.8 76.8-76.8 198.4 0 275.2l499.2 499.2c32 38.4 83.2 57.6 134.4 57.6s102.4-19.2 140.8-57.6l12.8-12.8c32-32 51.2-83.2 51.2-134.4s-19.2-102.4-57.6-140.8z" />
<glyph unicode="&#xe616;" glyph-name="pills" data-tags="pills" d="M224 448l403.2 403.2c25.6 25.6 64 44.8 108.8 44.8s83.2-19.2 115.2-44.8c64-64 64-166.4 0-224l-179.2-179.2h89.6l128 128c89.6 89.6 89.6 230.4 0 313.6-44.8 44.8-102.4 64-160 64s-108.8-12.8-153.6-57.6l-403.2-409.6c-19.2-12.8-32-32-44.8-57.6 32 12.8 64 19.2 96 19.2zM467.2 601.6l-153.6-153.6h300.8zM800 384h-576c-121.6 0-224-102.4-224-224s102.4-224 224-224h576c121.6 0 224 102.4 224 224s-102.4 224-224 224zM800 0h-288v256h-288c-70.4 0-128-38.4-160-76.8 12.8 76.8 76.8 140.8 160 140.8h576c89.6 0 160-70.4 160-160s-70.4-160-160-160z" />
<glyph unicode="&#xe617;" glyph-name="specialist" data-tags="specialist" d="M262.4 448c12.8-38.4 19.2-70.4 19.2-70.4 51.2-83.2 115.2-70.4 115.2-115.2 0-19.2-12.8-38.4-32-44.8l147.2-115.2 147.2 108.8c-19.2 12.8-32 25.6-32 44.8 0 51.2 64 32 115.2 115.2 0 0 12.8 25.6 19.2 70.4v0c19.2 70.4 38.4 198.4 32 262.4h-96c0 19.2 6.4 38.4 6.4 64h70.4c-19.2 89.6-64 128-140.8 147.2-32 25.6-76.8 44.8-121.6 44.8s-89.6-19.2-121.6-44.8c-76.8-19.2-115.2-57.6-140.8-147.2h70.4c0-25.6 6.4-44.8 12.8-64h-102.4c-6.4-64 12.8-192 32-256v0zM716.8 416c-6.4-6.4-12.8-12.8-19.2-19.2l-32-38.4c-25.6-32-51.2-51.2-89.6-57.6l-25.6-6.4c-25.6-6.4-57.6-6.4-89.6 0l-25.6 6.4c-38.4 12.8-70.4 32-96 70.4l-12.8 25.6c-6.4 6.4-12.8 12.8-19.2 19.2l-44.8 32 198.4 57.6c32 6.4 64 12.8 96 0l204.8-57.6-44.8-32zM384 768c0 70.4 57.6 128 128 128s128-57.6 128-128c0-70.4-57.6-128-128-128s-128 57.6-128 128zM992 51.2c-83.2 153.6-166.4 128-249.6 140.8 0 0 0 0-6.4 0l-224-166.4-224 166.4c0 0 0 0-6.4 0-89.6-6.4-166.4 12.8-249.6-140.8-12.8-25.6-25.6-70.4-32-115.2h1024c-6.4 44.8-19.2 89.6-32 115.2z" />
<glyph unicode="&#xe618;" glyph-name="stethoscope" data-tags="stethoscope" d="M364.8-12.8c19.2-19.2 64-51.2 115.2-51.2 172.8 0 211.2 128 217.6 230.4 12.8 147.2 51.2 140.8 70.4 140.8 44.8 0 57.6-25.6 57.6-70.4-38.4-25.6-64-64-64-108.8 0-70.4 57.6-128 128-128s128 57.6 128 128-57.6 128-128 128c-6.4 0-6.4 0-12.8 0-12.8 57.6-44.8 115.2-115.2 115.2-102.4 0-128-89.6-134.4-185.6-6.4-134.4-51.2-185.6-147.2-185.6-25.6 0-51.2 12.8-64 25.6-38.4 32-32 147.2-32 147.2 128 0 256 115.2 300.8 307.2l-12.8 6.4c19.2 76.8 32 166.4 32 230.4 0 70.4-19.2 121.6-64 160s-96 51.2-134.4 51.2c-12.8 19.2-32 32-57.6 32-32 0-64-25.6-64-64s25.6-64 64-64c25.6 0 44.8 12.8 51.2 32 32 0 64-12.8 96-38.4s44.8-57.6 44.8-108.8c0-57.6-12.8-140.8-32-224l-12.8 6.4c-19.2-70.4-83.2-230.4-211.2-230.4h-64c-128 0-192 160-211.2 230.4l-12.8-6.4c-19.2 83.2-32 166.4-32 224 0 51.2 12.8 83.2 44.8 108.8 25.6 25.6 64 32 96 38.4 6.4-19.2 25.6-32 51.2-32 38.4 0 64 25.6 64 64s-25.6 64-64 64c-25.6 0-44.8-12.8-57.6-32-38.4 0-89.6-12.8-134.4-51.2s-64-89.6-64-160c0-64 12.8-153.6 32-236.8l-12.8-6.4c44.8-185.6 172.8-300.8 300.8-300.8 0 0-6.4-140.8 44.8-185.6zM896 64c-38.4 0-64 25.6-64 64s25.6 64 64 64 64-25.6 64-64-32-64-64-64z" />
<glyph unicode="&#xe619;" glyph-name="teeth" data-tags="teeth" d="M294.4 473.6c-6.4-6.4-32-25.6-102.4-25.6 70.4 0 96-19.2 102.4-25.6 12.8 12.8 38.4 25.6 96 25.6-57.6 0-83.2 12.8-96 25.6zM512 960c-281.6 0-512-230.4-512-512s230.4-512 512-512c281.6 0 512 230.4 512 512s-230.4 512-512 512zM838.4 217.6c-64 0-89.6 51.2-102.4 102.4-12.8-57.6-38.4-128-115.2-128-70.4 0-96 70.4-108.8 128-12.8-64-38.4-128-108.8-128s-102.4 70.4-115.2 128c-12.8-51.2-38.4-102.4-102.4-102.4-128 0-121.6 192-121.6 192s12.8 38.4 108.8 38.4c-96 0-108.8 32-108.8 32s-6.4 192 121.6 192c64 0 89.6-51.2 102.4-102.4 12.8 57.6 38.4 128 115.2 128 70.4 6.4 96-64 108.8-121.6 12.8 64 38.4 128 108.8 128s102.4-70.4 115.2-128c12.8 51.2 38.4 102.4 102.4 102.4 128 0 121.6-192 121.6-192s-19.2-38.4-115.2-38.4c-76.8 0-102.4 19.2-115.2 25.6-12.8-12.8-44.8-25.6-102.4-25.6-76.8 0-102.4 12.8-115.2 25.6-6.4-6.4-38.4-25.6-102.4-25.6 64 0 89.6-19.2 102.4-25.6 12.8 12.8 38.4 25.6 115.2 25.6 64 0 89.6-12.8 108.8-25.6 0 6.4 32 25.6 108.8 25.6 96 0 115.2-38.4 115.2-38.4s6.4-192-121.6-192z" />
<glyph unicode="&#xe61a;" glyph-name="user-card" data-tags="user-card" d="M960 768v-640h-896v640h896zM1024 832h-1024v-768h1024v768zM512 640h384v-64h-384v64zM512 512h384v-64h-384v64zM512 384h192v-64h-192v64zM345.6 512h-25.6v6.4c38.4 12.8 64 51.2 64 89.6 0 51.2-44.8 96-96 96s-96-44.8-96-96c0-44.8 25.6-76.8 64-89.6v-6.4h-25.6c-57.6 0-102.4-44.8-102.4-102.4v-153.6h320v153.6c0 57.6-44.8 102.4-102.4 102.4z" />
<glyph unicode="&#xe61b;" glyph-name="user-check" data-tags="user-check" d="M480 38.4c-51.2 51.2-51.2 128 0 179.2s128 51.2 179.2 0l38.4-38.4 121.6 134.4c-44.8 25.6-83.2 25.6-128 25.6-44.8 6.4-89.6 19.2-89.6 57.6s51.2 25.6 89.6 96c0 0 172.8 467.2-185.6 467.2-352 0-179.2-467.2-179.2-467.2 38.4-64 89.6-51.2 89.6-96s-44.8-44.8-89.6-51.2c-70.4-6.4-134.4 6.4-198.4-108.8-38.4-70.4-57.6-300.8-57.6-300.8h512l-102.4 102.4zM819.2-64h134.4c0 0-6.4 57.6-12.8 128l-121.6-128zM704-64c-19.2 0-32 6.4-44.8 19.2l-128 128c-25.6 25.6-25.6 64 0 89.6s64 25.6 89.6 0l83.2-83.2 211.2 230.4c25.6 25.6 64 25.6 89.6 6.4 25.6-25.6 25.6-64 6.4-89.6l-256-275.2c-19.2-19.2-32-25.6-51.2-25.6 0 0 0 0 0 0z" />
<glyph unicode="&#xe61c;" glyph-name="user-clock" data-tags="user-clock" d="M896 128h-192v192h64v-128h128zM1024 160c0 160-128 288-288 288-44.8 0-89.6-12.8-128-32 12.8 19.2 51.2 19.2 89.6 76.8 0 0 172.8 467.2-185.6 467.2s-185.6-467.2-185.6-467.2c38.4-64 89.6-51.2 89.6-96s-44.8-44.8-89.6-51.2c-70.4-6.4-134.4 6.4-198.4-108.8-38.4-70.4-57.6-300.8-57.6-300.8h665.6c-121.6 0-224 102.4-224 224s102.4 224 224 224 224-102.4 224-224c0-121.6-102.4-224-224-224h217.6c0 0 0 12.8 0 32 38.4 51.2 70.4 115.2 70.4 192z" />
<glyph unicode="&#xe61d;" glyph-name="user-heart" data-tags="user-heart" d="M908.8-64h38.4c0 0 0 12.8 0 38.4l-38.4-38.4zM550.4 70.4c-44.8 44.8-64 115.2-51.2 179.2s51.2 115.2 108.8 134.4c0 6.4-6.4 12.8-6.4 12.8 0 38.4 51.2 25.6 89.6 96 0 0 172.8 467.2-185.6 467.2-352 0-179.2-467.2-179.2-467.2 38.4-64 89.6-51.2 89.6-96s-44.8-44.8-89.6-51.2c-70.4-6.4-134.4 6.4-198.4-108.8-38.4-70.4-57.6-300.8-57.6-300.8h614.4l-134.4 134.4zM953.6 313.6c-12.8 6.4-32 6.4-44.8 6.4-44.8 0-83.2-38.4-108.8-70.4-25.6 32-64 70.4-108.8 70.4-19.2 0-32 0-44.8-6.4-76.8-25.6-89.6-128-32-185.6l192-185.6 192 185.6c51.2 57.6 32 160-44.8 185.6z" />
<glyph unicode="&#xe61e;" glyph-name="absolute-position" data-tags="absolute-position" d="M0 960v-1024h1024v1024h-1024zM960 0h-896v384h192v-64l192 128-192 128v-64h-192v384h384v-192h-64l128-192 128 192h-64v192h384v-896z" />
<glyph unicode="&#xe61f;" glyph-name="accordion-menu" data-tags="accordion-menu" d="M0 704v-512h1024v512h-1024zM960 256h-896v256h896v-256zM0 960h1024v-192h-1024v192zM0 128h1024v-192h-1024v192z" />
<glyph unicode="&#xe620;" glyph-name="add-dock" data-tags="add-dock" d="M0 256v-320h1024v320h-1024zM768 0h-192v192h192v-192zM768 512v128c0 320-512 320-512 320s320 0 320-320v-128h-128l224-192 224 192h-128z" />
<glyph unicode="&#xe621;" glyph-name="archives" data-tags="archives" d="M704 832h-384v-256h384v256zM576 704h-128v64h128v-64zM192 960v-1024h128v64h384v-64h128v1024h-640zM768 64h-512v384h512v-384zM768 512h-512v384h512v-384zM704 384h-384v-256h384v256zM576 256h-128v64h128v-64z" />
<glyph unicode="&#xe622;" glyph-name="arrow-backward" data-tags="arrow-backward" d="M0 454.4l384 313.6v-192c0 0 70.4 0 128 0 512 0 512-512 512-512s-64 256-499.2 256c-70.4 0-115.2 0-140.8 0v-185.6l-384 320z" />
<glyph unicode="&#xe623;" glyph-name="arrow-forward" data-tags="arrow-forward" d="M1024 454.4l-384 313.6v-192c-32 0-70.4 0-128 0-512 0-512-512-512-512s64 256 499.2 256c70.4 0 115.2 0 140.8 0v-185.6l384 320z" />
<glyph unicode="&#xe624;" glyph-name="at" data-tags="at" d="M480 179.2c-147.2 0-268.8 121.6-268.8 268.8s121.6 268.8 268.8 268.8 268.8-121.6 268.8-268.8c6.4-147.2-121.6-268.8-268.8-268.8zM480 627.2c-96 0-172.8-83.2-172.8-179.2s76.8-179.2 179.2-179.2 179.2 76.8 179.2 179.2-89.6 179.2-185.6 179.2zM512-64c-281.6 0-512 230.4-512 512s230.4 512 512 512 512-230.4 512-512c0-96-25.6-192-76.8-268.8-19.2-32-70.4-76.8-147.2-76.8-51.2 0-83.2 19.2-102.4 38.4-44.8 44.8-38.4 115.2-38.4 121.6v441.6h96v-448c0-12.8 0-38.4 12.8-51.2 0 0 12.8-12.8 32-12.8 44.8 0 70.4 32 70.4 32 38.4 64 64 140.8 64 217.6 0 230.4-185.6 416-416 416s-422.4-179.2-422.4-409.6 185.6-416 416-416c44.8 0 83.2 6.4 121.6 19.2l25.6-89.6c-44.8-19.2-96-25.6-147.2-25.6z" />
<glyph unicode="&#xe625;" glyph-name="bell-slash-o" data-tags="bell-slash-o" d="M972.8 960l-230.4-230.4c-25.6 38.4-76.8 83.2-166.4 96v70.4c0 0 6.4 64-64 64s-64-64-64-64v-70.4c-192-32-192-185.6-192-185.6v-332.8c0-32-19.2-64-44.8-76.8l-83.2-38.4v-83.2l-128-128v-44.8h44.8l979.2 985.6v38.4h-51.2zM320 300.8c0 6.4 0 6.4 0 0v339.2c0 6.4 6.4 102.4 140.8 121.6l51.2 12.8 51.2-6.4c76.8-12.8 115.2-51.2 128-83.2l-371.2-384zM768 307.2v294.4l-64-64v-224c0-57.6 32-108.8 83.2-134.4l44.8-25.6v-25.6h-531.2l-64-64h153.6c0 0-6.4-128 128-128s128 128 128 128h249.6v128l-83.2 38.4c-25.6 19.2-44.8 44.8-44.8 76.8z" />
<glyph unicode="&#xe626;" glyph-name="bell-slash" data-tags="bell-slash" d="M972.8 960l-230.4-230.4c-32 38.4-76.8 83.2-166.4 96v70.4c0 0 6.4 64-64 64s-64-64-64-64v-70.4c-179.2-32-192-185.6-192-185.6v-332.8c0-32-19.2-64-44.8-76.8l-83.2-38.4v-64h19.2l-147.2-147.2v-44.8h44.8l979.2 985.6v38.4h-51.2zM384 652.8v-288l-64-64v339.2c0 0 0 51.2 44.8 89.6 44.8 44.8 83.2 38.4 83.2 38.4s-64-44.8-64-115.2zM512-64c134.4 0 128 128 128 128h-256c0 0-6.4-128 128-128zM768 307.2v294.4l-384-384-19.2-25.6-64-64h595.2v64l-83.2 38.4c-25.6 19.2-44.8 44.8-44.8 76.8z" />
<glyph unicode="&#xe627;" glyph-name="boat" data-tags="boat" d="M96 345.6c70.4-44.8 160-121.6 160-211.2 0-25.6 0-44.8 0-70.4 0 0 6.4 0 6.4 0s57.6 0 128 64c64-64 128-64 128-64s64 0 128 64c64-64 121.6-64 121.6-64s6.4 0 6.4 0c0 19.2 0 44.8 0 70.4 0 89.6 89.6 166.4 160 211.2 38.4 25.6 32 76.8-12.8 89.6l-89.6 25.6v243.2h-64v64h-192v128h-128v-128h-192v-64h-64v-243.2l-83.2-25.6c-51.2-12.8-51.2-64-12.8-89.6zM256 640h64v64h384v-64h64v-160l-211.2 64c-32 6.4-64 6.4-96 0l-204.8-64v160zM896 64c-64-64-128-64-128-64s-64 0-128 64c-64-64-128-64-128-64s-64 0-128 64c-64-64-128-64-128-64s-64 0-128 64c-64-64-128-64-128-64v-64h1024v64c0 0-64 0-128 64z" />
<glyph unicode="&#xe628;" glyph-name="browser" data-tags="browser" d="M960 896v64h-960v-960h64v-64h960v960h-64zM192 896h576v-64h-576v64zM64 896h64v-64h-64v64zM64 768h832v-704h-832v704z" />
<glyph unicode="&#xe629;" glyph-name="bullets" data-tags="bullets" d="M0 800v0c0-51.2 44.8-96 96-96v0c51.2 0 96 44.8 96 96v0c0 51.2-44.8 96-96 96v0c-51.2 0-96-44.8-96-96zM0 480v0c0-51.2 44.8-96 96-96v0c51.2 0 96 44.8 96 96v0c0 51.2-44.8 96-96 96v0c-51.2 0-96-44.8-96-96zM0 160v0c0-51.2 44.8-96 96-96v0c51.2 0 96 44.8 96 96v0c0 51.2-44.8 96-96 96v0c-51.2 0-96-44.8-96-96zM320 896h704v-192h-704v192zM320 576h704v-192h-704v192zM320 256h704v-192h-704v192z" />
<glyph unicode="&#xe62a;" glyph-name="button" data-tags="button" d="M1004.8 620.8l-64 64c-12.8 12.8-25.6 19.2-44.8 19.2h-832c-38.4 0-64-25.6-64-64v-320c0-19.2 6.4-38.4 19.2-44.8l64-64c12.8-12.8 25.6-19.2 44.8-19.2h832c38.4 0 64 25.6 64 64v320c0 19.2-6.4 32-19.2 44.8zM896 320h-832v320h832v-320z" />
<glyph unicode="&#xe62b;" glyph-name="calc-book" data-tags="calc-book" d="M761.6 960c-83.2 0-128-25.6-153.6-51.2-25.6 25.6-70.4 51.2-160 51.2-217.6 0-256-128-256-128v0 0-256h-192v-640h448v294.4l96 12.8c0 0 12.8 19.2 19.2-44.8h83.2c6.4 64 25.6 44.8 25.6 44.8l352-44.8v627.2c0 0-38.4 134.4-262.4 134.4zM64 512h320v-128h-320v128zM384 320v-64h-64v64h64zM256 320v-64h-64v64h64zM128 0h-64v64h64v-64zM128 128h-64v64h64v-64zM128 256h-64v64h64v-64zM256 0h-64v64h64v-64zM256 128h-64v64h64v-64zM384 0h-64v64h64v-64zM384 128h-64v64h64v-64zM576 352c-57.6 6.4-83.2 19.2-128 19.2v204.8h-192v249.6c0 25.6 51.2 96 192 96 115.2 0 121.6-51.2 121.6-64 0 0 0 0 0 0v-505.6zM960 326.4c-64 25.6-70.4 44.8-160 44.8-6.4 0-12.8 0-12.8 0-64 0-83.2-12.8-147.2-25.6v486.4c0 0 0 6.4 0 6.4s0 6.4 0 6.4c0 12.8 12.8 70.4 121.6 70.4 147.2 0 198.4-57.6 198.4-89.6v-499.2z" />
<glyph unicode="&#xe62c;" glyph-name="calendar-envelope" data-tags="calendar-envelope" d="M192 960h64v-128h-64v128zM576 960h64v-128h-64v128zM832 512v384h-128v-128h-192v128h-192v-128h-192v128h-128v-768h256v-192h768v576h-192zM256 192h-192v448h704v-128h-512v-320zM320 307.2l166.4-96-166.4-166.4v262.4zM364.8 0l179.2 179.2 96-57.6 96 51.2 179.2-179.2h-550.4zM960 44.8l-166.4 166.4 166.4 89.6v-256zM960 371.2l-320-172.8-320 185.6v64h640v-76.8zM985.6 345.6v0 0 0z" />
<glyph unicode="&#xe62d;" glyph-name="car" data-tags="car" d="M960 569.6l-89.6 185.6c-25.6 44.8-70.4 76.8-121.6 76.8h-473.6c-51.2 0-96-32-121.6-76.8l-89.6-185.6c-38.4-6.4-64-38.4-64-70.4v-224c0-38.4 25.6-70.4 64-76.8v-128c0-38.4 32-70.4 70.4-70.4h57.6c32 0 64 32 64 70.4v121.6h512v-121.6c0-38.4 32-70.4 70.4-70.4h57.6c38.4 0 70.4 32 70.4 70.4v128c38.4 6.4 64 38.4 64 76.8v224c-6.4 32-32 64-70.4 70.4zM256 422.4c0-19.2-19.2-38.4-38.4-38.4h-115.2c-19.2 0-38.4 19.2-38.4 38.4v51.2c0 19.2 19.2 38.4 38.4 38.4h115.2c19.2 0 38.4-19.2 38.4-38.4v-51.2zM640 256h-256v64h256v-64zM134.4 576l76.8 153.6c12.8 25.6 38.4 38.4 64 38.4h473.6c25.6 0 51.2-12.8 64-38.4l76.8-153.6h-755.2zM960 422.4c0-19.2-19.2-38.4-38.4-38.4h-115.2c-19.2 0-38.4 19.2-38.4 38.4v51.2c0 19.2 19.2 38.4 38.4 38.4h115.2c19.2 0 38.4-19.2 38.4-38.4v-51.2z" />
<glyph unicode="&#xe62e;" glyph-name="check-square" data-tags="check-square" d="M832 902.4l-64-70.4h-768v-896h896v672l108.8 128-172.8 166.4zM416 211.2l-268.8 268.8 89.6 89.6 172.8-172.8 422.4 422.4 89.6-89.6-505.6-518.4z" />
<glyph unicode="&#xe62f;" glyph-name="child" data-tags="child" d="M640 640c0-70.692-57.308-128-128-128s-128 57.308-128 128c0 70.692 57.308 128 128 128s128-57.308 128-128zM818.56 299.52l-166.4 168.32c-26.921 27.257-64.287 44.143-105.597 44.16h-68.483c-0.014 0-0.031 0-0.048 0-41.502 0-79.061-16.882-106.185-44.153l-166.407-168.327c-13.821-8.283-22.928-23.182-22.928-40.208 0-25.803 20.917-46.72 46.72-46.72 17.026 0 31.925 9.108 40.091 22.717l114.678 114.772v-414.080h96v256h64v-256h96v414.080l112-115.2c8.623-11.214 22.043-18.369 37.135-18.369 25.803 0 46.72 20.917 46.72 46.72 0 14.611-6.707 27.656-17.21 36.223z" />
<glyph unicode="&#xe630;" glyph-name="clipboard-cross" data-tags="clipboard-cross" d="M704 896v64h-384v-64h-128v-64h-64v-896h768v64h64v896h-256zM384 896h256v-128h-256v128zM832 0h-640v768h128v-64h384v64h128v-768zM704 448h-128v128h-128v-128h-128v-128h128v-128h128v128h128z" />
<glyph unicode="&#xe631;" glyph-name="clipboard-heart" data-tags="clipboard-heart" d="M608 512c0 0 0 0 0 0-38.4 0-70.4-38.4-96-64-25.6 25.6-57.6 64-96 64 0 0 0 0 0 0-96 0-134.4-121.6-64-185.6l160-134.4 160 134.4c70.4 64 32 185.6-64 185.6zM704 896v64h-384v-64h-128v-64h-64v-896h768v64h64v896h-256zM384 896h256v-128h-256v128zM832 0h-640v768h128v-64h384v64h128v-768z" />
<glyph unicode="&#xe632;" glyph-name="clipboard-pulse" data-tags="clipboard-pulse" d="M704 896v64h-384v-64h-128v-64h-64v-896h768v64h64v896h-256zM384 896h256v-128h-256v128zM832 0h-640v768h128v-64h384v64h128v-768zM595.2 128c0 0 0 0 0 0-12.8 0-19.2 6.4-25.6 19.2l-51.2 307.2-44.8-198.4c0-6.4-6.4-12.8-19.2-19.2-6.4 0-19.2 0-25.6 6.4l-64 83.2h-83.2c-12.8 0-25.6 12.8-25.6 25.6s12.8 25.6 25.6 25.6h102.4c6.4 0 12.8-6.4 19.2-6.4l38.4-51.2 57.6 275.2c0 12.8 12.8 19.2 25.6 19.2 0 0 0 0 0 0 12.8 0 19.2-12.8 19.2-25.6l57.6-339.2 38.4 108.8c6.4 6.4 12.8 12.8 19.2 12.8h83.2c12.8 0 25.6-12.8 25.6-25.6s-12.8-25.6-25.6-25.6h-64l-64-185.6c0 0-12.8-6.4-19.2-6.4z" />
<glyph unicode="&#xe633;" glyph-name="clipboard-text" data-tags="clipboard-text" d="M256 576h512v-64h-512v64zM256 448h512v-64h-512v64zM256 320h320v-64h-320v64zM704 896v64h-384v-64h-128v-64h-64v-896h768v64h64v896h-256zM384 896h256v-128h-256v128zM832 0h-640v768h128v-64h384v64h128v-768z" />
<glyph unicode="&#xe634;" glyph-name="clipboard-user" data-tags="clipboard-user" d="M704 896v64h-384v-64h-128v-64h-64v-896h768v64h64v896h-256zM384 896h256v-128h-256v128zM832 0h-640v768h128v-64h384v64h128v-768zM512 576c-160 0-83.2-204.8-83.2-204.8 19.2-25.6 44.8-25.6 44.8-38.4 0-19.2-19.2-19.2-38.4-25.6-32-6.4-57.6 6.4-89.6-51.2-19.2-25.6-25.6-128-25.6-128h384c0 0-6.4 102.4-25.6 128-25.6 51.2-57.6 44.8-89.6 51.2-19.2 0-38.4 6.4-38.4 25.6s19.2 12.8 38.4 38.4c6.4 0 83.2 204.8-76.8 204.8z" />
<glyph unicode="&#xe635;" glyph-name="clipboard" data-tags="clipboard" d="M704 896v64h-384v-64h-128v-64h-64v-896h768v64h64v896h-256zM384 896h256v-128h-256v128zM832 0h-640v768h128v-64h384v64h128v-768z" />
<glyph unicode="&#xe636;" glyph-name="combobox" data-tags="combobox" d="M960 704h-896c-38.4 0-64-25.6-64-64v-384c0-38.4 25.6-64 64-64h896c38.4 0 64 25.6 64 64v384c0 38.4-25.6 64-64 64zM640 256h-576v384h576v-384zM832 422.4l-128 89.6h256l-128-89.6zM128 576h64v-256h-64v256z" />
<glyph unicode="&#xe637;" glyph-name="compress-square" data-tags="compress-square" d="M768 960h-768v-768l64 64v640h640zM256-64h768v768l-64-64v-640h-640zM448 384h-320l115.2-115.2-243.2-243.2 89.6-89.6 243.2 243.2 115.2-115.2zM1024 870.4l-89.6 89.6-243.2-243.2-115.2 115.2v-320h320l-115.2 115.2z" />
<glyph unicode="&#xe638;" glyph-name="copyright" data-tags="copyright" d="M512 864c230.4 0 416-185.6 416-416s-185.6-416-416-416-416 185.6-416 416 185.6 416 416 416zM512 960c-281.6 0-512-230.4-512-512s230.4-512 512-512 512 230.4 512 512-230.4 512-512 512v0zM633.6 300.8c-32-25.6-76.8-44.8-121.6-44.8-108.8 0-192 83.2-192 192s83.2 192 192 192c51.2 0 102.4-19.2 134.4-57.6l70.4 70.4c-51.2 51.2-128 83.2-204.8 83.2-160 0-288-128-288-288s128-288 288-288c70.4 0 128 25.6 179.2 64l-57.6 76.8z" />
<glyph unicode="&#xe639;" glyph-name="css" data-tags="css" d="M262.4 256c89.6 0 121.6 64 121.6 64l-51.2 32c0 0-19.2-32-64-32s-76.8 57.6-76.8 140.8c0 76.8 38.4 115.2 76.8 115.2 32 0 57.6-25.6 57.6-25.6l51.2 38.4c0 0-44.8 51.2-108.8 51.2-70.4 0-140.8-57.6-140.8-179.2s57.6-204.8 134.4-204.8zM556.8 326.4c-19.2-6.4-44.8 0-64 25.6l-51.2-32c25.6-38.4 64-64 102.4-64 6.4 0 19.2 0 25.6 6.4 44.8 12.8 70.4 51.2 70.4 102.4 0 76.8-51.2 102.4-83.2 115.2-32 19.2-44.8 25.6-44.8 51.2s6.4 44.8 38.4 44.8c19.2 0 38.4-25.6 38.4-25.6l51.2 38.4c-12.8 19.2-44.8 51.2-89.6 51.2-57.6 0-102.4-38.4-102.4-102.4 0-70.4 44.8-96 76.8-115.2 38.4-12.8 51.2-25.6 51.2-57.6 0-19.2 0-38.4-19.2-38.4zM812.8 326.4c-19.2-6.4-44.8 0-64 25.6l-51.2-32c25.6-38.4 64-64 102.4-64 6.4 0 19.2 0 25.6 6.4 44.8 12.8 70.4 51.2 70.4 102.4 0 76.8-51.2 102.4-83.2 115.2-32 19.2-44.8 25.6-44.8 51.2s6.4 44.8 38.4 44.8c19.2 0 38.4-25.6 38.4-25.6l51.2 38.4c-12.8 19.2-44.8 51.2-89.6 51.2-57.6 0-102.4-38.4-102.4-102.4 0-70.4 44.8-96 76.8-115.2 38.4-12.8 51.2-25.6 51.2-57.6 0-19.2 0-38.4-19.2-38.4zM0 960v-1024h1024v1024h-1024zM960 0h-896v896h896v-896z" />
<glyph unicode="&#xe63a;" glyph-name="curly-brackets" data-tags="curly-brackets" d="M134.4 761.6c12.8-83.2 25.6-102.4 25.6-185.6 0-51.2-96-96-96-96v-64c0 0 96-44.8 96-96 0-83.2-12.8-102.4-25.6-185.6-19.2-134.4 51.2-198.4 115.2-198.4s134.4 0 134.4 0v128c0 0-115.2-12.8-115.2 64 0 57.6 12.8 57.6 25.6 185.6 6.4 57.6-32 102.4-70.4 134.4 38.4 32 76.8 70.4 70.4 128-19.2 128-25.6 128-25.6 185.6 0 76.8 115.2 70.4 115.2 70.4v128c0 0-64 0-134.4 0s-134.4-64-115.2-198.4zM889.6 761.6c-12.8-83.2-25.6-102.4-25.6-185.6 0-51.2 96-96 96-96v-64c0 0-96-44.8-96-96 0-83.2 12.8-102.4 25.6-185.6 19.2-134.4-51.2-198.4-115.2-198.4s-134.4 0-134.4 0v128c0 0 115.2-12.8 115.2 64 0 57.6-12.8 57.6-25.6 185.6-6.4 57.6 32 102.4 70.4 134.4-38.4 32-76.8 70.4-70.4 128 12.8 128 25.6 128 25.6 185.6 0 76.8-115.2 70.4-115.2 70.4v128c0 0 64 0 134.4 0s134.4-64 115.2-198.4z" />
<glyph unicode="&#xe63b;" glyph-name="date-input" data-tags="date-input" d="M896 896v-192h-192v192h-384v-192h-192v192h-128v-960h1024v960h-128zM960 0h-896v576h896v-576zM192 960h64v-192h-64v192zM768 960h64v-192h-64v192zM192 448h64v-320h-64v320z" />
<glyph unicode="&#xe63c;" glyph-name="elastic" data-tags="elastic" d="M300.8-64v0c-108.8 0-198.4 51.2-256 134.4-70.4 108.8-57.6 256 25.6 371.2 57.6 83.2 134.4 134.4 230.4 153.6 76.8 19.2 140.8 70.4 160 140.8 12.8 51.2 44.8 96 83.2 128 57.6 64 140.8 96 224 96 70.4 0 140.8-25.6 185.6-76.8 96-102.4 96-268.8-6.4-384-32-38.4-76.8-70.4-128-89.6-76.8-32-140.8-102.4-166.4-192-19.2-64-51.2-121.6-96-166.4-70.4-76.8-166.4-115.2-256-115.2zM768 896c-64 0-128-25.6-179.2-76.8-32-32-51.2-64-64-102.4-32-96-115.2-160-211.2-185.6-76.8-12.8-140.8-57.6-192-128-70.4-96-76.8-211.2-19.2-300.8 38.4-64 115.2-102.4 198.4-102.4v0c76.8 0 153.6 32 211.2 89.6 38.4 38.4 70.4 89.6 83.2 140.8 25.6 108.8 102.4 192 204.8 230.4 38.4 12.8 76.8 44.8 102.4 76.8 76.8 89.6 83.2 224 6.4 300.8-38.4 38.4-89.6 57.6-140.8 57.6z" />
<glyph unicode="&#xe63d;" glyph-name="envelope-open-o" data-tags="envelope-open-o" d="M896 723.2v44.8h-96l-288 192-294.4-192h-89.6v-44.8l-128-83.2v-704h1024v697.6l-128 89.6zM512 883.2l172.8-115.2h-352l179.2 115.2zM192 704h640v-236.8l-224-108.8-96 83.2-96-89.6-224 108.8v243.2zM64 608l64 44.8v-153.6l-64 25.6v83.2zM64 454.4l294.4-147.2-294.4-256v403.2zM121.6 0l390.4 339.2 390.4-339.2h-780.8zM960 51.2l-300.8 262.4 300.8 147.2v-409.6zM960 531.2l-64-32v147.2l64-44.8v-70.4z" />
<glyph unicode="&#xe63e;" glyph-name="envelope-open" data-tags="envelope-open" d="M896 723.2v-236.8l128 64v89.6zM128 716.8l-128-76.8v-96l128-64zM716.8 832l-204.8 128-204.8-128zM832 768h-640v-313.6l217.6-108.8 102.4 76.8 102.4-76.8 217.6 108.8zM1024 473.6l-352-172.8 352-281.6zM512 345.6l-512-409.6h1024zM352 300.8l-352 172.8v-454.4z" />
<glyph unicode="&#xe63f;" glyph-name="external-browser" data-tags="external-browser" d="M704 320l-185.6 204.8-211.2-204.8h140.8v-115.2c0-108.8-57.6-268.8-256-268.8 307.2 0 384 89.6 384 275.2v108.8h128zM0 960v-832h384v64h-320v576h896v-576h-320v-64h384v832h-1024zM128 832h-64v64h64v-64zM832 832h-640v64h640v-64z" />
<glyph unicode="&#xe640;" glyph-name="eyedropper" data-tags="eyedropper" d="M960 896c-115.2 115.2-236.8 44.8-294.4-6.4-25.6-25.6-44.8-57.6-44.8-96v0c0-70.4-70.4-115.2-134.4-96l-6.4 6.4-44.8-51.2 44.8-44.8-384-384-51.2-147.2-44.8-44.8 96-96 51.2 51.2 147.2 51.2 384 384 44.8-44.8 44.8 38.4-6.4 12.8c-19.2 64 25.6 134.4 96 134.4v0c38.4 0 70.4 12.8 89.6 38.4 57.6 57.6 128 179.2 12.8 294.4zM249.6 89.6l-128-44.8-12.8-6.4 6.4 12.8 44.8 128 371.2 371.2 96-96-377.6-364.8z" />
<glyph unicode="&#xe641;" glyph-name="factory" data-tags="factory" d="M281.6 876.8c-38.4-19.2-51.2-70.4-25.6-96 32 57.6 83.2 38.4 160-25.6 51.2-44.8 121.6-6.4 121.6-6.4s12.8-76.8 108.8-89.6c108.8-12.8 147.2 51.2 147.2 51.2s25.6-64 121.6-25.6c70.4 25.6 44.8 70.4 44.8 70.4s64 0 64 44.8c0 57.6-70.4 51.2-70.4 51.2s12.8 64-57.6 70.4c-64 6.4-83.2-32-83.2-32s-19.2 70.4-115.2 70.4c-89.6 0-121.6-83.2-121.6-83.2s-25.6 38.4-102.4 38.4c-57.6 0-83.2-44.8-83.2-44.8s-70.4 32-108.8 6.4zM768 185.6v134.4l-256-134.4v134.4h-153.6l-38.4 448h-128l-38.4-448h-153.6v-384h1024v384l-256-134.4zM384 64h-256v128h256v-128z" />
<glyph unicode="&#xe642;" glyph-name="file-process" data-tags="file-process" d="M768 960h-448v-384h44.8l12.8-44.8 6.4-6.4v371.2h320v-256h256v-576h-384l19.2-32-32-32h460.8v704l-256 256zM768 704v192l192-192h-192zM352 224c0-35.346-28.654-64-64-64s-64 28.654-64 64c0 35.346 28.654 64 64 64s64-28.654 64-64zM505.6 166.4l70.4 25.6v64l-70.4 25.6c-6.4 19.2-12.8 38.4-25.6 57.6l32 64-44.8 44.8-64-32c-19.2 12.8-38.4 19.2-57.6 25.6l-25.6 70.4h-64l-25.6-70.4c-19.2-6.4-38.4-12.8-57.6-25.6l-64 32-44.8-44.8 32-70.4c-12.8-19.2-19.2-38.4-25.6-57.6l-70.4-19.2v-64l70.4-25.6c6.4-19.2 12.8-38.4 25.6-57.6l-32-64 44.8-44.8 70.4 32c19.2-12.8 38.4-19.2 57.6-25.6l19.2-70.4h64l25.6 70.4c19.2 6.4 38.4 12.8 57.6 25.6l64-32 44.8 44.8-32 70.4c12.8 12.8 19.2 32 25.6 51.2zM288 96c-70.4 0-128 57.6-128 128s57.6 128 128 128 128-57.6 128-128c0-70.4-57.6-128-128-128z" />
<glyph unicode="&#xe643;" glyph-name="file-refresh" data-tags="file-refresh" d="M640 960h-512v-1024h768v768l-256 256zM832 0h-640v896h384v-256h256v-640zM640 704v192l192-192h-192zM300.8 467.2l-44.8 44.8v-192h192l-76.8 76.8c25.6 51.2 83.2 83.2 140.8 83.2 89.6 0 160-70.4 160-160h96c0 140.8-115.2 256-256 256-83.2 0-160-44.8-211.2-108.8zM627.2 204.8c-32-32-70.4-51.2-115.2-44.8-64 0-121.6 38.4-147.2 96h-102.4c25.6-108.8 128-192 243.2-192 70.4 0 134.4 32 179.2 76.8l83.2-76.8v192h-192l51.2-51.2z" />
<glyph unicode="&#xe644;" glyph-name="file-start" data-tags="file-start" d="M640 960h-512v-1024h768v768l-256 256zM832 0h-640v896h384v-256h256v-640zM640 704v192l192-192h-192zM320 576v-384l384 192z" />
<glyph unicode="&#xe645;" glyph-name="file-tree-small" data-tags="file-tree-small" d="M320 192v-128h704v320h-704v-128h-128v256h576v320h-768v-320h128v-320z" />
<glyph unicode="&#xe646;" glyph-name="file-tree-sub" data-tags="file-tree-sub" d="M512 256v-64h-64v128h320v256h-512v-64h-64v128h384v256h-576v-256h128v-192h128v-128h128v-192h128v-128h512v256z" />
<glyph unicode="&#xe647;" glyph-name="file-tree" data-tags="file-tree" d="M1024 320v256h-704v-64h-128v192h576v256h-768v-256h128v-640h192v-128h704v256h-704v-64h-128v320h128v-128z" />
<glyph unicode="&#xe648;" glyph-name="adobe-flash" data-tags="adobe-flash" d="M0 960v-1024h1024v1024h-1024zM832 678.4c-192 0-211.2-166.4-211.2-166.4h83.2v-128h-153.6c-115.2-371.2-358.4-320-358.4-320v160c0 0 160-38.4 249.6 256 115.2 390.4 390.4 352 390.4 352v-153.6z" />
<glyph unicode="&#xe649;" glyph-name="flip-h" data-tags="flip-h" d="M0 0l384 320-384 313.6zM576 313.6l384-313.6v640l-384-326.4zM896 134.4l-217.6 179.2 217.6 192v-371.2zM448 640h64v-64h-64v64zM448 768h64v-64h-64v64zM448 512h64v-64h-64v64zM448 384h64v-64h-64v64zM448 256h64v-64h-64v64zM448 128h64v-64h-64v64zM448 0h64v-64h-64v64zM480 896v0c83.2 0 166.4-44.8 230.4-121.6l-70.4-70.4h192v192l-76.8-76.8c-76.8 89.6-172.8 140.8-275.2 140.8 0 0 0 0 0 0-121.6 0-230.4-64-313.6-185.6l51.2-38.4c70.4 102.4 160 160 262.4 160z" />
<glyph unicode="&#xe64a;" glyph-name="flip-v" data-tags="flip-v" d="M64 896l320-384 316.16 384h-636.16zM380.16 320l-316.16-384h640zM199.68 0l181.12 220.16 192-220.16h-373.12zM640 448h64v-64h-64v64zM768 448h64v-64h-64v64zM512 448h64v-64h-64v64zM384 448h64v-64h-64v64zM256 448h64v-64h-64v64zM128 448h64v-64h-64v64zM0 448h64v-64h-64v64zM960 417.92v0c-3.769-95.016-50.050-178.503-120.232-232.422l-71.768 70.502v-192h192l-75.52 75.52c82.733 65.979 136.204 165.625 139.507 277.862l0.013 0.538c-5.909 133.32-78.267 248.533-184.559 313.918l-38.161-51.518c91.058-54.867 152.517-150.832 158.682-261.554z" />
<glyph unicode="&#xe64b;" glyph-name="form" data-tags="form" d="M960 832v-128h-576v128h576zM1024 896h-704v-256h704v256zM0 896h256v-256h-256v256zM960 512v-128h-576v128h576zM1024 576h-704v-256h704v256zM0 576h256v-256h-256v256zM960 192v-128h-576v128h576zM1024 256h-704v-256h704v256zM0 256h256v-256h-256v256z" />
<glyph unicode="&#xe64c;" glyph-name="funcion" data-tags="funcion" d="M640 960c0 0-134.4 0-172.8-192l-25.6-128h-121.6l-32-64h140.8l-89.6-448c-25.6-128-121.6-128-121.6-128h-64l-25.6-64h192c0 0 134.4 0 172.8 192l89.6 448h153.6l32 64h-172.8l25.6 128c25.6 128 115.2 128 115.2 128h64l32 64h-192z" />
<glyph unicode="&#xe64d;" glyph-name="grab" data-tags="grab" d="M806.4 704c-12.8 0-25.6 0-38.4 0 0 12.8-12.8 38.4-25.6 51.2s-32 25.6-70.4 25.6c-12.8 0-25.6 0-38.4-6.4-6.4 12.8-12.8 19.2-19.2 32-12.8 12.8-32 25.6-70.4 25.6-51.2 0-76.8-32-89.6-64-6.4 0-19.2 6.4-32 6.4-32 0-51.2-12.8-70.4-25.6-32-38.4-32-89.6-32-96v-25.6c-38.4 0-70.4-12.8-89.6-32-38.4-44.8-38.4-102.4-38.4-179.2 0-12.8 0-32 0-44.8 0-89.6 44.8-134.4 89.6-179.2l19.2-25.6c83.2-76.8 160-102.4 326.4-102.4 185.6 0 268.8 102.4 268.8 326.4v160c0 44.8-12.8 134.4-89.6 153.6zM672 716.8c25.6 0 32-25.6 32-38.4v-51.2c0-19.2 12.8-32 25.6-32 19.2 0 32 6.4 32 25.6 0 0 0 25.6 25.6 19.2 38.4-12.8 44.8-70.4 44.8-83.2 0 0 0 0 0 0v-166.4c0-217.6-83.2-262.4-204.8-262.4-153.6 0-211.2 19.2-275.2 83.2-6.4 6.4-12.8 12.8-25.6 25.6-44.8 44.8-70.4 70.4-70.4 134.4 0 12.8 0 19.2 0 38.4 0 64 0 115.2 19.2 134.4 6.4 12.8 25.6 19.2 44.8 19.2v-51.2l-19.2-76.8c0-6.4 0-6.4 6.4-6.4 6.4-6.4 12.8 0 12.8 0l64 76.8c0 0 0 6.4 0 6.4v128c0 6.4 0 38.4 12.8 51.2 6.4 6.4 12.8 12.8 25.6 12.8 19.2 0 25.6-12.8 25.6-25.6v-25.6c0-12.8 12.8-32 32-32s32 19.2 32 32v83.2c0 6.4 0 32 32 32 19.2 0 32-12.8 32-32v-76.8c0-19.2 12.8-38.4 32-38.4s32 19.2 32 32v32c0 19.2 12.8 32 32 32z" />
<glyph unicode="&#xe64e;" glyph-name="grid-bevel" data-tags="grid-bevel" d="M896 832v64h-832v-832h64v-64h832v832h-64zM320 128h-192v192h192v-192zM320 384h-192v192h192v-192zM320 640h-192v192h192v-192zM576 128h-192v192h192v-192zM576 384h-192v192h192v-192zM576 640h-192v192h192v-192zM832 128h-192v192h192v-192zM832 384h-192v192h192v-192zM832 640h-192v192h192v-192z" />
<glyph unicode="&#xe64f;" glyph-name="grid-h" data-tags="grid-h" d="M0 960v-1024h1024v1024h-1024zM320 0h-256v896h256v-896zM640 0h-256v896h256v-896zM960 0h-256v896h256v-896z" />
<glyph unicode="&#xe650;" glyph-name="grid-v" data-tags="grid-v" d="M1024 960h-1024v-1024h1024v1024zM64 640v256h896v-256h-896zM64 320v256h896v-256h-896zM64 0v256h896v-256h-896z" />
<glyph unicode="&#xe651;" glyph-name="grid" data-tags="grid" d="M0 960v-1024h1024v1024h-1024zM320 0h-256v256h256v-256zM320 320h-256v256h256v-256zM320 640h-256v256h256v-256zM640 0h-256v256h256v-256zM640 320h-256v256h256v-256zM640 640h-256v256h256v-256zM960 0h-256v256h256v-256zM960 320h-256v256h256v-256zM960 640h-256v256h256v-256z" />
<glyph unicode="&#xe652;" glyph-name="hand" data-tags="hand" d="M864 806.4c-25.6 25.6-64 32-96 19.2 0 19.2-6.4 38.4-25.6 57.6-12.8 12.8-38.4 25.6-70.4 25.6-19.2 0-32-6.4-44.8-6.4 0 12.8-6.4 19.2-12.8 32-32 38.4-96 38.4-128 0-12.8-12.8-25.6-25.6-25.6-38.4-12.8 0-25.6 6.4-38.4 6.4-32 0-51.2-12.8-70.4-32-32-32-32-83.2-32-83.2v-243.2c-19.2 19.2-51.2 51.2-96 51.2-12.8 0-32-6.4-44.8-12.8-25.6-12.8-38.4-32-44.8-57.6-19.2-64 38.4-153.6 38.4-160 6.4-6.4 76.8-172.8 140.8-243.2 64-76.8 134.4-121.6 313.6-121.6 185.6 0 268.8 102.4 268.8 326.4v352c0 6.4 6.4 83.2-32 128zM512 832c0 19.2-6.4 64 32 64 32 0 32-32 32-64v-256c0-19.2 12.8-32 32-32s32 12.8 32 32v243.2c0 0 0 25.6 32 25.6 38.4 0 32-57.6 32-57.6v-211.2c0-19.2 12.8-32 32-32s32 12.8 32 32v153.6c0 6.4 0 38.4 32 38.4s32-64 32-64v-377.6c0-217.6-83.2-262.4-204.8-262.4-153.6 0-211.2 32-262.4 102.4-57.6 64-134.4 230.4-134.4 236.8-19.2 19.2-44.8 76.8-38.4 102.4 0 6.4 6.4 12.8 12.8 19.2 6.4 0 12.8 6.4 12.8 6.4 25.6 0 51.2-32 57.6-44.8l38.4-57.6c6.4-12.8 25.6-19.2 38.4-12.8 25.6 0 32 12.8 32 25.6v332.8c0 25.6 0 64 32 64 25.6 0 32-19.2 32-51.2v-211.2c0-19.2 12.8-32 32-32s32 12.8 32 32z" />
<glyph unicode="&#xe653;" glyph-name="input" data-tags="input" d="M1024 640c0 38.4-25.6 64-64 64h-896c-38.4 0-64-25.6-64-64v-384c0-38.4 25.6-64 64-64h896c38.4 0 64 25.6 64 64v384zM960 256h-896v384h896v-384zM128 576h64v-256h-64v256z" />
<glyph unicode="&#xe654;" glyph-name="layout" data-tags="layout" d="M0 960v-1024h1024v1024h-1024zM64 768h256v-768h-256v768zM960 0h-576v768h576v-768z" />
<glyph unicode="&#xe655;" glyph-name="level-right-bold" data-tags="level-right-bold" d="M1024 512l-448 256v-192h-576v-448l192 128v128h384v-192z" />
<glyph unicode="&#xe656;" glyph-name="list-select" data-tags="list-select" d="M64 960h768v-128h-768v128zM64 448h832v-128h-832v128zM64 256h704v-128h-704v128zM64 64h896v-128h-896v128zM0 768v-256h1024v256h-1024zM704 576h-640v128h640v-128z" />
<glyph unicode="&#xe657;" glyph-name="margin-bottom" data-tags="margin-bottom" d="M0 960v-896h64v64h64v-64h64v64h64v-64h64v64h64v-64h64v64h64v-64h64v64h64v-64h64v64h64v-64h64v64h64v-64h64v64h64v832h-1024zM960 192h-896v704h896v-704zM0 0h64v-64h-64v64zM64 64h64v-64h-64v64zM128 0h64v-64h-64v64zM192 64h64v-64h-64v64zM256 0h64v-64h-64v64zM320 64h64v-64h-64v64zM384 0h64v-64h-64v64zM448 64h64v-64h-64v64zM512 0h64v-64h-64v64zM576 64h64v-64h-64v64zM640 0h64v-64h-64v64zM704 64h64v-64h-64v64zM768 0h64v-64h-64v64zM832 64h64v-64h-64v64zM896 0h64v-64h-64v64zM960 64h64v-64h-64v64z" />
<glyph unicode="&#xe658;" glyph-name="margin-left" data-tags="margin-left" d="M128 960v-64h64v-64h-64v-64h64v-64h-64v-64h64v-64h-64v-64h64v-64h-64v-64h64v-64h-64v-64h64v-64h-64v-64h64v-64h-64v-64h64v-64h832v1024h-896zM960 0h-704v896h704v-896zM0 960h64v-64h-64v64zM64 896h64v-64h-64v64zM0 832h64v-64h-64v64zM64 768h64v-64h-64v64zM0 704h64v-64h-64v64zM64 640h64v-64h-64v64zM0 576h64v-64h-64v64zM64 512h64v-64h-64v64zM0 448h64v-64h-64v64zM64 384h64v-64h-64v64zM0 320h64v-64h-64v64zM64 256h64v-64h-64v64zM0 192h64v-64h-64v64zM64 128h64v-64h-64v64zM0 64h64v-64h-64v64zM64 0h64v-64h-64v64z" />
<glyph unicode="&#xe659;" glyph-name="margin-right" data-tags="margin-right" d="M896 832v64h-64v64h-832v-1024h896v64h-64v64h64v64h-64v64h64v64h-64v64h64v64h-64v64h64v64h-64v64h64v64h-64v64h64v64h-64v64h64zM768 0h-704v896h704v-896zM960 0h64v-64h-64v64zM896 64h64v-64h-64v64zM960 128h64v-64h-64v64zM896 192h64v-64h-64v64zM960 256h64v-64h-64v64zM896 320h64v-64h-64v64zM960 384h64v-64h-64v64zM896 448h64v-64h-64v64zM960 512h64v-64h-64v64zM896 576h64v-64h-64v64zM960 640h64v-64h-64v64zM896 704h64v-64h-64v64zM960 768h64v-64h-64v64zM896 832h64v-64h-64v64zM960 896h64v-64h-64v64zM896 960h64v-64h-64v64z" />
<glyph unicode="&#xe65a;" glyph-name="margin-top" data-tags="margin-top" d="M960 832v-64h-64v64h-64v-64h-64v64h-64v-64h-64v64h-64v-64h-64v64h-64v-64h-64v64h-64v-64h-64v64h-64v-64h-64v64h-64v-64h-64v-832h1024v896h-64zM960 0h-896v704h896v-704zM960 960h64v-64h-64v64zM896 896h64v-64h-64v64zM832 960h64v-64h-64v64zM768 896h64v-64h-64v64zM704 960h64v-64h-64v64zM640 896h64v-64h-64v64zM576 960h64v-64h-64v64zM512 896h64v-64h-64v64zM448 960h64v-64h-64v64zM384 896h64v-64h-64v64zM320 960h64v-64h-64v64zM256 896h64v-64h-64v64zM192 960h64v-64h-64v64zM128 896h64v-64h-64v64zM64 960h64v-64h-64v64zM0 896h64v-64h-64v64z" />
<glyph unicode="&#xe65b;" glyph-name="margin" data-tags="margin" d="M0 960h64v-64h-64v64zM128 960h64v-64h-64v64zM64 896h64v-64h-64v64zM0 832h64v-64h-64v64zM128 832h64v-64h-64v64zM64 768h64v-64h-64v64zM0 704h64v-64h-64v64zM64 640h64v-64h-64v64zM0 576h64v-64h-64v64zM64 512h64v-64h-64v64zM0 448h64v-64h-64v64zM64 384h64v-64h-64v64zM0 320h64v-64h-64v64zM64 256h64v-64h-64v64zM0 192h64v-64h-64v64zM64 128h64v-64h-64v64zM0 64h64v-64h-64v64zM128 64h64v-64h-64v64zM64 0h64v-64h-64v64zM192 0h64v-64h-64v64zM320 0h64v-64h-64v64zM256 960h64v-64h-64v64zM192 896h64v-64h-64v64zM320 896h64v-64h-64v64zM256 64h64v-64h-64v64zM384 960h64v-64h-64v64zM512 960h64v-64h-64v64zM448 896h64v-64h-64v64zM384 64h64v-64h-64v64zM512 64h64v-64h-64v64zM448 0h64v-64h-64v64zM576 0h64v-64h-64v64zM704 0h64v-64h-64v64zM640 960h64v-64h-64v64zM576 896h64v-64h-64v64zM704 896h64v-64h-64v64zM640 64h64v-64h-64v64zM768 960h64v-64h-64v64zM896 960h64v-64h-64v64zM832 896h64v-64h-64v64zM832 832h-64v-64h-64v64h-64v-64h-64v64h-64v-64h-64v64h-64v-64h-64v64h-64v-64h-64v-64h-64v-64h64v-64h-64v-64h64v-64h-64v-64h64v-64h-64v-64h64v-64h-64v-64h64v-64h64v64h64v-64h64v64h64v-64h64v64h64v-64h64v64h64v-64h64v64h64v64h64v64h-64v64h64v64h-64v64h64v64h-64v64h64v64h-64v64h64v64h-64v64zM768 192h-512v512h512v-512zM896 832h64v-64h-64v64zM896 704h64v-64h-64v64zM896 576h64v-64h-64v64zM896 448h64v-64h-64v64zM896 320h64v-64h-64v64zM896 192h64v-64h-64v64zM832 128h64v-64h-64v64zM768 64h64v-64h-64v64zM896 64h64v-64h-64v64zM832 0h64v-64h-64v64zM960 0h64v-64h-64v64zM960 896h64v-64h-64v64zM960 768h64v-64h-64v64zM960 640h64v-64h-64v64zM960 512h64v-64h-64v64zM960 384h64v-64h-64v64zM960 256h64v-64h-64v64zM960 128h64v-64h-64v64z" />
<glyph unicode="&#xe65c;" glyph-name="native-button" data-tags="native-button" d="M960 192h-896c-38.4 0-64 25.6-64 64v384c0 38.4 25.6 64 64 64h896c38.4 0 64-25.6 64-64v-384c0-38.4-25.6-64-64-64z" />
<glyph unicode="&#xe65d;" glyph-name="notebook" data-tags="notebook" d="M128 960v-64h-33.28c-16.966 0-30.72-13.754-30.72-30.72v0c-0.068-0.767-0.107-1.659-0.107-2.56 0-16.966 13.754-30.72 30.72-30.72 0.038 0 0.075 0 0.113 0h33.274v-64h-33.28c-16.966 0-30.72-13.754-30.72-30.72v0c-0.068-0.767-0.107-1.659-0.107-2.56 0-16.966 13.754-30.72 30.72-30.72 0.038 0 0.075 0 0.113 0h33.274v-64h-33.28c-16.966 0-30.72-13.754-30.72-30.72 0 0 0 0 0 0v0c-0.068-0.767-0.107-1.659-0.107-2.56 0-16.966 13.754-30.72 30.72-30.72 0.038 0 0.075 0 0.113 0h33.274v-64h-33.28c-16.966 0-30.72-13.754-30.72-30.72 0 0 0 0 0 0v0c-0.068-0.767-0.107-1.659-0.107-2.56 0-16.966 13.754-30.72 30.72-30.72 0.038 0 0.075 0 0.113 0h33.274v-64h-33.28c-16.966 0-30.72-13.754-30.72-30.72 0 0 0 0 0 0v0c0-16.966 13.754-30.72 30.72-30.72 0 0 0 0 0 0h33.28v-64h-33.28c-16.966 0-30.72-13.754-30.72-30.72 0 0 0 0 0 0v0c0-16.966 13.754-30.72 30.72-30.72 0 0 0 0 0 0h33.28v-64h-33.28c-16.966 0-30.72-13.754-30.72-30.72 0 0 0 0 0 0v0c0-16.966 13.754-30.72 30.72-30.72 0 0 0 0 0 0h33.28v-128h768v1016.32h-768zM224 64c-17.673 0-32 14.327-32 32s14.327 32 32 32c17.673 0 32-14.327 32-32s-14.327-32-32-32zM224 192c-17.673 0-32 14.327-32 32s14.327 32 32 32c17.673 0 32-14.327 32-32s-14.327-32-32-32zM224 320c-17.673 0-32 14.327-32 32s14.327 32 32 32c17.673 0 32-14.327 32-32s-14.327-32-32-32zM224 448c-17.673 0-32 14.327-32 32s14.327 32 32 32c17.673 0 32-14.327 32-32s-14.327-32-32-32zM224 576c-17.673 0-32 14.327-32 32s14.327 32 32 32c17.673 0 32-14.327 32-32s-14.327-32-32-32zM224 704c-17.673 0-32 14.327-32 32s14.327 32 32 32c17.673 0 32-14.327 32-32s-14.327-32-32-32zM224 832c-17.673 0-32 14.327-32 32s14.327 32 32 32c17.673 0 32-14.327 32-32s-14.327-32-32-32zM768 576h-384v192h384v-192z" />
<glyph unicode="&#xe65e;" glyph-name="options" data-tags="options" d="M320 736c0-53.019-42.981-96-96-96s-96 42.981-96 96c0 53.019 42.981 96 96 96s96-42.981 96-96zM224 960c-121.6 0-224-102.4-224-224s102.4-224 224-224 224 102.4 224 224-102.4 224-224 224zM224 576c-89.6 0-160 70.4-160 160s70.4 160 160 160 160-70.4 160-160c0-89.6-70.4-160-160-160zM224 448c-121.6 0-224-102.4-224-224s102.4-224 224-224 224 102.4 224 224c0 121.6-102.4 224-224 224zM224 64c-89.6 0-160 70.4-160 160s70.4 160 160 160 160-70.4 160-160c0-89.6-70.4-160-160-160zM512 832h512v-192h-512v192zM512 320h512v-192h-512v192z" />
<glyph unicode="&#xe65f;" glyph-name="orientation" data-tags="orientation" d="M704 825.6c128 0 192-83.2 192-185.6h-64l96-128 96 128h-64c0 140.8-128 249.6-256 249.6v70.4l-128-96 128-96v57.6zM576 384h384v-384h-448v960h-512v-1024h1024v512h-448v-64zM448 448h-64v-64h64v-384h-384v896h384v-448zM128 448h64v-64h-64v64zM256 448h64v-64h-64v64z" />
<glyph unicode="&#xe660;" glyph-name="outbox" data-tags="outbox" d="M384 640v-384h256v384h128l-256 320-256-320zM832 832h-128l57.6-64h25.6l166.4-512h-249.6v-128h-384v128h-249.6l166.4 512h25.6l57.6 64h-128l-192-576v-320h1024v320z" />
<glyph unicode="&#xe661;" glyph-name="padding-bottom" data-tags="padding-bottom" d="M1024-64v1024h-1024v-1024h1024zM64 128h64v64h-64v704h896v-768h-64v-64h64v-64h-64v64h-64v-64h-64v64h-64v-64h-64v64h-64v-64h-64v64h-64v-64h-64v64h-64v-64h-64v64h-64v-64h-64v64h-64v64zM768 128h64v-64h-64v64zM832 192h64v-64h-64v64zM704 192h64v-64h-64v64zM576 192h64v-64h-64v64zM640 128h64v-64h-64v64zM512 128h64v-64h-64v64zM384 128h64v-64h-64v64zM448 192h64v-64h-64v64zM320 192h64v-64h-64v64zM192 192h64v-64h-64v64zM256 128h64v-64h-64v64zM128 128h64v-64h-64v64z" />
<glyph unicode="&#xe662;" glyph-name="padding-left" data-tags="padding-left" d="M0-64h1024v1024h-1024v-1024zM192 896v-64h64v64h704v-896h-768v64h-64v-64h-64v64h64v64h-64v64h64v64h-64v64h64v64h-64v64h64v64h-64v64h64v64h-64v64h64v64h-64v64h64v64h64zM128 192h64v-64h-64v64zM192 128h64v-64h-64v64zM192 256h64v-64h-64v64zM192 384h64v-64h-64v64zM128 320h64v-64h-64v64zM128 448h64v-64h-64v64zM128 576h64v-64h-64v64zM192 512h64v-64h-64v64zM192 640h64v-64h-64v64zM192 768h64v-64h-64v64zM128 704h64v-64h-64v64zM128 832h64v-64h-64v64z" />
<glyph unicode="&#xe663;" glyph-name="padding-right" data-tags="padding-right" d="M1024 960h-1024v-1024h1024v1024zM832 0v64h-64v-64h-704v896h768v-64h64v64h64v-64h-64v-64h64v-64h-64v-64h64v-64h-64v-64h64v-64h-64v-64h64v-64h-64v-64h64v-64h-64v-64h64v-64h-64v-64h-64zM832 768h64v-64h-64v64zM768 832h64v-64h-64v64zM768 704h64v-64h-64v64zM768 576h64v-64h-64v64zM832 640h64v-64h-64v64zM832 512h64v-64h-64v64zM832 384h64v-64h-64v64zM768 448h64v-64h-64v64zM768 320h64v-64h-64v64zM768 192h64v-64h-64v64zM832 256h64v-64h-64v64zM832 128h64v-64h-64v64z" />
<glyph unicode="&#xe664;" glyph-name="padding-top" data-tags="padding-top" d="M0 960v-1024h1024v1024h-1024zM960 768h-64v-64h64v-704h-896v768h64v64h-64v64h64v-64h64v64h64v-64h64v64h64v-64h64v64h64v-64h64v64h64v-64h64v64h64v-64h64v64h64v-64h64v-64zM192 832h64v-64h-64v64zM128 768h64v-64h-64v64zM256 768h64v-64h-64v64zM384 768h64v-64h-64v64zM320 832h64v-64h-64v64zM448 832h64v-64h-64v64zM576 832h64v-64h-64v64zM512 768h64v-64h-64v64zM640 768h64v-64h-64v64zM768 768h64v-64h-64v64zM704 832h64v-64h-64v64zM832 832h64v-64h-64v64z" />
<glyph unicode="&#xe665;" glyph-name="padding" data-tags="padding" d="M0 960v-1024h1024v1024h-1024zM960 768h-64v-64h64v-64h-64v-64h64v-64h-64v-64h64v-64h-64v-64h64v-64h-64v-64h64v-64h-64v-64h64v-64h-64v64h-64v-64h-64v64h-64v-64h-64v64h-64v-64h-64v64h-64v-64h-64v64h-64v-64h-64v64h-64v-64h-64v64h-64v64h64v64h-64v64h64v64h-64v64h64v64h-64v64h64v64h-64v64h64v64h-64v64h64v64h-64v64h64v-64h64v64h64v-64h64v64h64v-64h64v64h64v-64h64v64h64v-64h64v64h64v-64h64v64h64v-64h64v-64zM192 832h64v-64h-64v64zM256 768h64v-64h-64v64zM384 768h64v-64h-64v64zM320 832h64v-64h-64v64zM448 832h64v-64h-64v64zM576 832h64v-64h-64v64zM512 768h64v-64h-64v64zM640 768h64v-64h-64v64zM768 768h64v-64h-64v64zM704 832h64v-64h-64v64zM832 832h64v-64h-64v64zM768 640h64v-64h-64v64zM832 704h64v-64h-64v64zM768 512h64v-64h-64v64zM832 576h64v-64h-64v64zM768 384h64v-64h-64v64zM832 448h64v-64h-64v64zM768 256h64v-64h-64v64zM832 320h64v-64h-64v64zM768 128h64v-64h-64v64zM832 192h64v-64h-64v64zM128 768h64v-64h-64v64zM192 704h64v-64h-64v64zM128 640h64v-64h-64v64zM192 576h64v-64h-64v64zM128 512h64v-64h-64v64zM192 448h64v-64h-64v64zM128 384h64v-64h-64v64zM192 320h64v-64h-64v64zM128 256h64v-64h-64v64zM128 128h64v-64h-64v64zM192 192h64v-64h-64v64zM256 256h64v-64h-64v64zM256 128h64v-64h-64v64zM320 192h64v-64h-64v64zM384 128h64v-64h-64v64zM448 192h64v-64h-64v64zM576 192h64v-64h-64v64zM512 128h64v-64h-64v64zM704 192h64v-64h-64v64zM640 128h64v-64h-64v64z" />
<glyph unicode="&#xe666;" glyph-name="paint-roll" data-tags="paint-roll" d="M1024 518.4v313.6h-128v128h-832v-64h-64v-192h64v-64h832v128h64v-198.4l-512-64v-121.6h-64v-57.6c0 0 32 0 32-57.6s-32-38.4-32-96v-179.2c0 0 0-57.6 96-57.6s96 57.6 96 57.6v179.2c0 57.6-32 44.8-32 96s32 57.6 32 57.6v57.6h-64v70.4l512 64z" />
<glyph unicode="&#xe667;" glyph-name="palete" data-tags="palete" d="M528 960c-408.32 0-583.040-472.32-512.64-634.88 52.48-120.96 167.68-5.12 213.76-64 120.32-157.44-135.040-243.84 5.76-299.52 165.76-67.84 789.12-25.6 789.12 545.92 0 172.16-85.76 452.48-496 452.48zM286.080 384c-52.187 1.077-94.080 43.637-94.080 95.981 0 53.019 42.981 96 96 96 53.013 0 95.989-42.97 96-95.98 0-0.007 0-0.014 0-0.020 0-53.019-42.981-96-96-96-0.675 0-1.349 0.007-2.020 0.021zM384 736c0.011 53.011 42.987 95.981 96 95.981 53.019 0 96-42.981 96-96s-42.981-96-96-96c-0.675 0-1.349 0.007-2.020 0.021-52.087 1.075-93.98 43.635-93.98 95.979 0 0.007 0 0.014 0 0.020zM542.080 64c-52.187 1.077-94.080 43.637-94.080 95.981 0 53.019 42.981 96 96 96 53.013 0 95.989-42.97 96-95.98 0-0.007 0-0.014 0-0.020 0-53.019-42.981-96-96-96-0.675 0-1.349 0.007-2.020 0.021zM798.080 256c-52.187 1.077-94.080 43.637-94.080 95.981 0 53.019 42.981 96 96 96 53.013 0 95.989-42.97 96-95.98 0-0.007 0-0.014 0-0.020 0-53.019-42.981-96-96-96-0.675 0-1.349 0.007-2.020 0.021zM798.080 576c-52.187 1.077-94.080 43.637-94.080 95.981 0 53.019 42.981 96 96 96 53.013 0 95.989-42.97 96-95.98 0-0.007 0-0.014 0-0.020 0-53.019-42.981-96-96-96-0.675 0-1.349 0.007-2.020 0.021z" />
<glyph unicode="&#xe668;" glyph-name="panel" data-tags="panel" d="M0 960v-1024h1024v1024h-1024zM832 0h-768v768h768v-768zM960 0h-64v64h64v-64zM960 128h-64v512h64v-512zM960 704h-64v64h64v-64z" />
<glyph unicode="&#xe669;" glyph-name="password" data-tags="password" d="M1024 640c0 38.4-25.6 64-64 64h-896c-38.4 0-64-25.6-64-64v-384c0-38.4 25.6-64 64-64h896c38.4 0 64 25.6 64 64v384zM960 256h-896v384h896v-384zM384 448c0-35.346-28.654-64-64-64s-64 28.654-64 64c0 35.346 28.654 64 64 64s64-28.654 64-64zM576 448c0-35.346-28.654-64-64-64s-64 28.654-64 64c0 35.346 28.654 64 64 64s64-28.654 64-64zM768 448c0-35.346-28.654-64-64-64s-64 28.654-64 64c0 35.346 28.654 64 64 64s64-28.654 64-64z" />
<glyph unicode="&#xe66a;" glyph-name="plug" data-tags="plug" d="M940.8 761.6c-25.6 25.6-64 25.6-89.6 0l-179.2-179.2-96 89.6 179.2 179.2c25.6 25.6 25.6 64 0 89.6s-64 25.6-89.6 0l-179.2-179.2-89.6 89.6-89.6-89.6 44.8-44.8-89.6-89.6c-89.6-89.6-96-224-32-326.4-108.8-96-166.4-243.2-166.4-364.8h128c0 83.2 25.6 204.8 134.4 281.6 96-51.2 217.6-32 294.4 44.8l89.6 89.6 44.8-44.8 89.6 89.6-89.6 89.6 179.2 179.2c32 32 32 70.4 6.4 96z" />
<glyph unicode="&#xe66b;" glyph-name="pointer" data-tags="pointer" d="M806.4 640c-12.8 0-32 0-38.4 0 0 12.8-12.8 38.4-25.6 51.2s-38.4 25.6-70.4 25.6c-12.8 0-25.6 0-38.4-6.4-6.4 12.8-12.8 19.2-19.2 32-12.8 12.8-32 25.6-70.4 25.6-12.8 0-25.6 0-32-6.4v108.8c0 38.4-25.6 89.6-89.6 89.6-25.6 0-51.2-12.8-70.4-25.6-32-38.4-32-89.6-32-89.6v-275.2c-38.4-6.4-70.4-19.2-89.6-38.4-38.4-44.8-38.4-102.4-38.4-179.2 0-12.8 0-32 0-44.8 0-89.6 44.8-134.4 89.6-179.2l19.2-25.6c83.2-76.8 153.6-102.4 326.4-102.4 185.6 0 268.8 102.4 268.8 326.4v160c0 44.8-12.8 134.4-89.6 153.6zM832 486.4v-166.4c0-217.6-83.2-262.4-204.8-262.4-153.6 0-211.2 19.2-275.2 83.2-6.4 6.4-12.8 12.8-25.6 25.6-44.8 51.2-70.4 76.8-70.4 140.8 0 12.8 0 32 0 44.8 0 64 0 108.8 19.2 134.4 6.4 6.4 25.6 12.8 44.8 12.8v-32l-19.2-96c0-6.4 0-6.4 6.4-12.8s12.8 0 12.8 0l64 76.8c0 6.4 0 12.8 0 12.8v396.8c0 6.4 0 32 12.8 44.8 6.4 0 12.8 6.4 25.6 6.4 19.2 0 25.6-19.2 25.6-25.6v-198.4c0 0 0 0 0 0v-76.8c0-19.2 12.8-38.4 32-38.4s32 19.2 32 32v83.2c0 0 0 0 0 0 0 6.4 6.4 32 32 32 19.2 0 32-6.4 32-25.6v-83.2c0-19.2 12.8-38.4 32-38.4s32 19.2 32 32v44.8c0 6.4 6.4 19.2 32 19.2 12.8 0 19.2-6.4 19.2-6.4 12.8-6.4 12.8-25.6 12.8-25.6v-51.2c0-19.2 12.8-32 25.6-32 19.2 0 32 6.4 32 25.6 0 6.4 6.4 12.8 12.8 19.2 0 0 6.4 0 12.8 0 38.4-12.8 44.8-76.8 44.8-96 0 6.4 0 6.4 0 0z" />
<glyph unicode="&#xe66c;" glyph-name="progressbar" data-tags="progressbar" d="M0 640v-384h1024v384h-1024zM960 320h-896v256h896v-256zM128 512h448v-128h-448v128z" />
<glyph unicode="&#xe66d;" glyph-name="resize-h" data-tags="resize-h" d="M0 512h1024v-128h-1024v128zM448 576h128v192h128l-192 192-192-192h128zM576 320h-128v-192h-128l192-192 192 192h-128z" />
<glyph unicode="&#xe66e;" glyph-name="resize-v" data-tags="resize-v" d="M448 960h128v-1024h-128v1024zM192 640l-192-192 192-192v128h192v128h-192zM1024 448l-192 192v-128h-192v-128h192v-128z" />
<glyph unicode="&#xe66f;" glyph-name="rhombus" data-tags="rhombus" d="M512 960l-512-512 512-512 512 512-512 512zM128 448l384 384 384-384-384-384-384 384z" />
<glyph unicode="&#xe670;" glyph-name="road-branch" data-tags="road-branch" d="M1024 704h-1024v-192h204.8l243.2-230.4c102.4-96 230.4-153.6 371.2-153.6h204.8v192h-204.8c-89.6 0-172.8 32-236.8 96l-102.4 96h544v192z" />
<glyph unicode="&#xe671;" glyph-name="road-branches" data-tags="road-branches" d="M1024 704v192h-1024v-192h108.8l492.8-608c83.2-102.4 198.4-160 320-160h102.4v192h-96c-64 0-121.6 32-172.8 89.6l-83.2 102.4h352v192h-512l-153.6 192h665.6z" />
<glyph unicode="&#xe672;" glyph-name="road-split" data-tags="road-split" d="M896 128v64c0 12.8 0 262.4-179.2 345.6-140.8 64-140.8 224-140.8 230.4v192h-128v-192c0-6.4 0-166.4-140.8-230.4-179.2-83.2-179.2-332.8-179.2-345.6v-64h-128l192-192 192 192h-128v64c0 0 0 179.2 108.8 230.4 70.4 32 115.2 83.2 147.2 128 32-51.2 76.8-96 147.2-128 108.8-51.2 108.8-230.4 108.8-230.4v-64h-128l192-192 192 192h-128z" />
<glyph unicode="&#xe673;" glyph-name="select" data-tags="select" d="M960 704h-896c-38.4 0-64-25.6-64-64v-384c0-38.4 25.6-64 64-64h896c38.4 0 64 25.6 64 64v384c0 38.4-25.6 64-64 64zM768 384l-128 128h256l-128-128z" />
<glyph unicode="&#xe674;" glyph-name="slider" data-tags="slider" d="M1024 576h-230.4c-44.8 76.8-128 128-217.6 128s-179.2-51.2-217.6-128h-358.4v-256h358.4c44.8-76.8 128-128 217.6-128s179.2 51.2 217.6 128h230.4v256zM64 384v128h262.4c0-19.2-6.4-44.8-6.4-64s6.4-44.8 6.4-64h-262.4zM576 256c-108.8 0-192 83.2-192 192s83.2 192 192 192 192-83.2 192-192c0-108.8-83.2-192-192-192z" />
<glyph unicode="&#xe675;" glyph-name="split" data-tags="split" d="M0 256h384v-320h-384v320zM704 320v128l-40.96-40.96c-54.461 51.869-88.331 124.933-88.331 205.907 0 9.526 0.469 18.943 1.384 28.228l127.906-1.175v320h-384v-320h128c0.822-8.11 1.291-17.527 1.291-27.053 0-80.974-33.869-154.038-88.215-205.797l-41.076 40.85v-128h128l-41.6 41.6c65.817 63.431 106.694 152.351 106.694 250.818 0 9.708-0.397 19.323-1.177 28.83-0.615-9.507-1.012-19.122-1.012-28.83 0-98.467 40.877-187.387 106.587-250.715l-41.493-41.703h128zM640 256h384v-320h-384v320z" />
<glyph unicode="&#xe676;" glyph-name="start-cog" data-tags="start-cog" d="M256 960v-384h108.8l12.8-44.8 12.8-38.4c0 0 6.4 0 6.4 0l76.8 38.4 115.2-115.2-38.4-76.8c0 0 0-6.4 0-6.4l38.4-12.8 44.8-12.8v-12.8l390.4 217.6-768 448zM288 288c-12.8 0-25.6-6.4-32-12.8-19.2-12.8-32-32-32-51.2s12.8-44.8 32-51.2c6.4-6.4 19.2-12.8 32-12.8 38.4 0 64 25.6 64 64s-25.6 64-64 64zM576 192v64l-70.4 25.6c-6.4 19.2-12.8 38.4-25.6 57.6l32 64-44.8 44.8-64-32c-19.2 12.8-38.4 19.2-57.6 25.6l-25.6 70.4h-64l-25.6-70.4c-19.2-6.4-38.4-12.8-57.6-25.6l-64 32-44.8-44.8 32-70.4c-12.8-19.2-19.2-38.4-25.6-57.6l-70.4-19.2v-64l70.4-25.6c6.4-19.2 12.8-38.4 25.6-57.6l-32-64 44.8-44.8 70.4 32c19.2-12.8 38.4-19.2 57.6-25.6l19.2-70.4h64l25.6 70.4c19.2 6.4 38.4 12.8 57.6 25.6l64-32 44.8 44.8-32 70.4c12.8 19.2 19.2 38.4 25.6 57.6l70.4 19.2zM288 96c-70.4 0-128 57.6-128 128s57.6 128 128 128 128-57.6 128-128c0-70.4-57.6-128-128-128z" />
<glyph unicode="&#xe677;" glyph-name="stop-cog" data-tags="stop-cog" d="M64 960v-460.8l32 32 76.8-38.4c0 0 6.4 0 6.4 0l12.8 38.4 19.2 44.8h153.6l12.8-44.8 12.8-38.4c0 0 6.4 0 6.4 0l76.8 38.4 115.2-115.2-38.4-76.8c0 0 0-6.4 0-6.4l38.4-12.8 44.8-12.8v-153.6l-44.8-12.8-38.4-12.8c0 0 0-6.4 0-6.4l38.4-76.8-25.6-44.8h460.8v960h-960zM352 224c0-35.346-28.654-64-64-64s-64 28.654-64 64c0 35.346 28.654 64 64 64s64-28.654 64-64zM505.6 166.4l70.4 25.6v64l-70.4 25.6c-6.4 19.2-12.8 38.4-25.6 57.6l32 64-44.8 44.8-64-32c-19.2 12.8-38.4 19.2-57.6 25.6l-25.6 70.4h-64l-25.6-70.4c-19.2-6.4-38.4-12.8-57.6-25.6l-64 32-44.8-44.8 32-70.4c-12.8-19.2-19.2-38.4-25.6-57.6l-70.4-19.2v-64l70.4-25.6c6.4-19.2 12.8-38.4 25.6-57.6l-32-64 44.8-44.8 70.4 32c19.2-12.8 38.4-19.2 57.6-25.6l19.2-70.4h64l25.6 70.4c19.2 6.4 38.4 12.8 57.6 25.6l64-32 44.8 44.8-32 70.4c12.8 12.8 19.2 32 25.6 51.2zM288 96c-70.4 0-128 57.6-128 128s57.6 128 128 128 128-57.6 128-128c0-70.4-57.6-128-128-128z" />
<glyph unicode="&#xe678;" glyph-name="sword" data-tags="sword" d="M1011.2 928l-6.4 12.8-12.8 6.4c-6.4 0-160 51.2-268.8-57.6l-428.8-422.4c-57.6 38.4-108.8 76.8-115.2 64l-25.6-19.2c-12.8-12.8 57.6-108.8 115.2-172.8l-160-217.6c-19.2 19.2-51.2 19.2-70.4 0l-19.2-19.2c-19.2-19.2-19.2-51.2 0-70.4l64-64c19.2-19.2 51.2-19.2 70.4 0l19.2 19.2c19.2 19.2 19.2 51.2 0 70.4v0l224 160c64-57.6 160-128 172.8-115.2l25.6 25.6c6.4 6.4-25.6 64-70.4 115.2l428.8 428.8c108.8 96 57.6 249.6 57.6 256zM492.8 288l-51.2 51.2 396.8 441.6-441.6-396.8-44.8 44.8 416 416c64 64 147.2 51.2 185.6 44.8 6.4-38.4 19.2-121.6-44.8-179.2l-416-422.4z" />
<glyph unicode="&#xe679;" glyph-name="tabs" data-tags="tabs" d="M896 704v128h-896v-768h1024v640h-128zM640 768h192v-64h-192v64zM384 768h192v-64h-192v64zM960 128h-896v640h256v-128h640v-512z" />
<glyph unicode="&#xe67a;" glyph-name="taxi" data-tags="taxi" d="M960 569.6l-89.6 185.6c-25.6 44.8-70.4 76.8-128 76.8h-38.4v83.2c0 25.6-19.2 44.8-44.8 44.8h-294.4c-25.6 0-44.8-19.2-44.8-44.8v-83.2h-44.8c-51.2 0-102.4-32-121.6-76.8l-89.6-185.6c-38.4-6.4-64-38.4-64-70.4v-224c0-38.4 0-70.4 64-76.8v-128c0-38.4 25.6-70.4 64-70.4h57.6c38.4 0 70.4 32 70.4 70.4v121.6h512v-121.6c0-38.4 25.6-70.4 64-70.4h57.6c38.4 0 70.4 32 70.4 70.4v128c64 6.4 64 38.4 64 76.8v224c0 32-25.6 64-64 70.4zM256 422.4c0-19.2-19.2-38.4-38.4-38.4h-115.2c-19.2 0-38.4 19.2-38.4 38.4v51.2c0 19.2 19.2 38.4 38.4 38.4h115.2c19.2 0 38.4-19.2 38.4-38.4v-51.2zM640 256h-256v64h256v-64zM134.4 576l76.8 153.6c12.8 25.6 38.4 38.4 64 38.4h473.6c25.6 0 51.2-12.8 64-38.4l76.8-153.6h-755.2zM960 422.4c0-19.2-19.2-38.4-38.4-38.4h-115.2c-19.2 0-38.4 19.2-38.4 38.4v51.2c0 19.2 19.2 38.4 38.4 38.4h115.2c19.2 0 38.4-19.2 38.4-38.4v-51.2z" />
<glyph unicode="&#xe67b;" glyph-name="text-input" data-tags="text-input" d="M128 832h64v-256h-64v256zM64 960c-38.4 0-64-25.6-64-64v-896c0-38.4 25.6-64 64-64h960v1024h-960zM832 0h-768v896h768v-896zM960 0v0h-64v64h64v-64zM960 128h-64v640h64v-640zM960 832h-64v64h64v-64z" />
<glyph unicode="&#xe67c;" glyph-name="text-label" data-tags="text-label" d="M800 646.4c-89.6 0-160-51.2-166.4-57.6l76.8-102.4c0 0 44.8 32 89.6 32 89.6 0 96-76.8 96-102.4-25.6 6.4-70.4 19.2-128 6.4-89.6-19.2-179.2-128-134.4-249.6 44.8-115.2 198.4-134.4 262.4-38.4v-64h128v339.2c0 172.8-121.6 236.8-224 236.8zM736 230.4c-6.4 121.6 96 121.6 160 115.2v-64c0-76.8-147.2-147.2-160-51.2zM441.6 64h134.4l-204.8 768h-172.8l-198.4-768h134.4l64 256h172.8l70.4-256zM230.4 448l51.2 204.8 57.6-204.8h-108.8z" />
<glyph unicode="&#xe67d;" glyph-name="tooth" data-tags="tooth" d="M723.2-64c-76.8 0-108.8 249.6-108.8 262.4-6.4 83.2-64 134.4-102.4 140.8-38.4 0-89.6-57.6-102.4-140.8 0-12.8-32-262.4-108.8-262.4s-115.2 281.6-121.6 281.6c-12.8 89.6 6.4 217.6 12.8 256-25.6 76.8-115.2 358.4-32 448 32 25.6 70.4 38.4 121.6 38.4 38.4 0 83.2-6.4 128-19.2 38.4-6.4 70.4-12.8 102.4-12.8s64 6.4 102.4 12.8c44.8 12.8 89.6 19.2 128 19.2 51.2 0 89.6-12.8 115.2-44.8 83.2-89.6-6.4-371.2-32-448 6.4-32 25.6-160 12.8-249.6 6.4 0-32-281.6-115.2-281.6zM512 403.2c83.2-6.4 153.6-89.6 166.4-198.4 6.4-76.8 32-153.6 44.8-185.6 19.2 38.4 44.8 134.4 57.6 211.2 12.8 89.6-12.8 236.8-12.8 236.8v12.8c44.8 134.4 89.6 339.2 51.2 390.4-19.2 19.2-44.8 25.6-76.8 25.6s-76.8-6.4-115.2-19.2c-38.4-6.4-76.8-12.8-115.2-12.8s-76.8 6.4-115.2 12.8c-38.4 12.8-83.2 19.2-115.2 19.2s-57.6-6.4-70.4-25.6c-44.8-44.8 0-256 51.2-390.4v-12.8c0 0-25.6-147.2-12.8-236.8 12.8-76.8 38.4-172.8 57.6-211.2 12.8 38.4 38.4 108.8 44.8 185.6 6.4 102.4 76.8 192 160 198.4z" />
<glyph unicode="&#xe67e;" glyph-name="train" data-tags="train" d="M832 243.2v473.6c0 64-51.2 115.2-115.2 115.2h-140.8v64h128v64h-384v-64h128v-64h-140.8c-64 0-115.2-51.2-115.2-115.2v-473.6c0-64 51.2-115.2 115.2-115.2h12.8l-44.8-64h-83.2v-64h44.8l-44.8-64h128l38.4 64h313.6l38.4-64h128l-44.8 64h38.4v64h-83.2l-44.8 64h12.8c64 0 115.2 51.2 115.2 115.2zM256 710.4c0 32 25.6 57.6 57.6 57.6h390.4c38.4 0 64-25.6 64-57.6v-134.4c0-38.4-25.6-64-57.6-64h-396.8c-32 0-57.6 25.6-57.6 57.6v140.8zM256 256c0 38.4 25.6 64 64 64s64-25.6 64-64c0-38.4-25.6-64-64-64s-64 25.6-64 64zM633.6 64h-243.2l38.4 64h166.4l38.4-64zM640 256c0 38.4 25.6 64 64 64s64-25.6 64-64c0-38.4-25.6-64-64-64s-64 25.6-64 64z" />
<glyph unicode="&#xe67f;" glyph-name="tree-table" data-tags="tree-table" d="M384 320v128h-128v64h64v128h-192v-128h64v-384h192v128h-128v64zM0 960v-1024h1024v1024h-1024zM448 0h-384v768h384v-768zM704 0h-192v768h192v-768zM960 0h-192v768h192v-768z" />
<glyph unicode="&#xe680;" glyph-name="twin-col-select" data-tags="twin-col-select" d="M0 832v-768h1024v768h-1024zM448 128h-384v640h384v-640zM960 128h-384v640h384v-640zM640 704h256v-64h-256v64zM128 704h256v-64h-256v64zM128 576h256v-64h-256v64zM128 448h256v-64h-256v64z" />
<glyph unicode="&#xe681;" glyph-name="viewport" data-tags="viewport" d="M64 704h-64v256h256v-64h-192zM768 896v64h256v-256h-64v192zM960 192h64v-256h-256v64h192zM256 0v-64h-256v256h64v-192zM832 768v-640h-640v640h640zM896 832h-768v-768h768v768z" />
<glyph unicode="&#xe682;" glyph-name="abacus" data-tags="abacus" d="M0 960v-1024h1024v1024h-1024zM896 832v-192h-6.4c-12.8 38.4-51.2 64-89.6 64s-76.8-25.6-89.6-64h-204.8c-12.8 38.4-44.8 64-89.6 64s-76.8-25.6-89.6-64h-12.8c-12.8 38.4-44.8 64-89.6 64s-76.8-25.6-89.6-64h-6.4v192h768zM889.6 320c-12.8 38.4-51.2 64-89.6 64s-76.8-25.6-89.6-64h-12.8c-12.8 38.4-51.2 64-89.6 64s-76.8-25.6-89.6-64h-204.8c-12.8 38.4-44.8 64-89.6 64s-76.8-25.6-89.6-64h-6.4v256h6.4c12.8-38.4 51.2-64 89.6-64s76.8 25.6 89.6 64h12.8c12.8-38.4 51.2-64 89.6-64s76.8 25.6 89.6 64h204.8c12.8-38.4 51.2-64 89.6-64s76.8 25.6 89.6 64h6.4l-6.4-256zM128 64v192h6.4c12.8-38.4 51.2-64 89.6-64s76.8 25.6 89.6 64h204.8c12.8-38.4 51.2-64 89.6-64s76.8 25.6 89.6 64h12.8c12.8-38.4 51.2-64 89.6-64s76.8 25.6 89.6 64h6.4v-192h-768z" />
<glyph unicode="&#xe683;" glyph-name="accessibility" data-tags="accessibility" d="M665.6 320h-32c6.4-19.2 6.4-44.8 6.4-64 0-140.8-115.2-256-256-256s-256 115.2-256 256c0 134.4 102.4 243.2 236.8 256l-12.8 64c-166.4-25.6-288-153.6-288-320 0-179.2 140.8-320 320-320 153.6 0 281.6 108.8 313.6 249.6l-32 134.4zM838.4 128l-70.4 320h-262.4l-12.8 64h211.2v64h-224l-38.4 160c57.6 6.4 102.4 51.2 102.4 108.8 0 64-51.2 115.2-115.2 115.2s-108.8-51.2-108.8-115.2c0-38.4 19.2-76.8 51.2-96l83.2-364.8h262.4l76.8-320h166.4v64h-121.6z" />
<glyph unicode="&#xe684;" glyph-name="airplane" data-tags="airplane" d="M787.2 544c32 32 57.6 51.2 76.8 70.4 102.4 102.4 204.8 262.4 140.8 326.4s-217.6-38.4-320-140.8c-19.2-19.2-38.4-44.8-70.4-76.8l-448 204.8c-44.8 19.2-96 12.8-128-19.2l-38.4-32 422.4-364.8c-83.2-102.4-172.8-198.4-217.6-256l-70.4 38.4c-32 19.2-76.8 19.2-102.4-12.8l-19.2-19.2 179.2-134.4 128-179.2 19.2 19.2c25.6 25.6 32 70.4 12.8 102.4l-32 70.4c57.6 44.8 153.6 134.4 256 217.6l364.8-422.4 32 32c32 32 38.4 83.2 19.2 128l-204.8 448z" />
<glyph unicode="&#xe685;" glyph-name="anchor" data-tags="anchor" d="M832 384v-128c0 0-51.2-108.8-256-121.6v441.6h140.8c12.8-19.2 32-32 51.2-32 38.4 0 64 25.6 64 64s-25.6 64-64 64c-25.6 0-44.8-12.8-51.2-32h-140.8v83.2c38.4 19.2 64 64 64 108.8 0 70.4-57.6 128-128 128s-128-57.6-128-128c0-44.8 25.6-89.6 64-108.8v-83.2h-140.8c-6.4 19.2-25.6 32-51.2 32-38.4 0-64-25.6-64-64s25.6-64 64-64c25.6 0 44.8 12.8 51.2 32h140.8v-448c-211.2 19.2-256 128-256 128v128h-192c0 0 179.2-448 512-448 320 0 512 448 512 448h-192zM512 896c38.4 0 64-25.6 64-64s-25.6-64-64-64-64 25.6-64 64 25.6 64 64 64z" />
<glyph unicode="&#xe686;" glyph-name="asterisk" data-tags="asterisk" d="M1017.6 595.2l-128 217.6-249.6-140.8v288h-256v-288l-256 140.8-128-217.6 249.6-147.2-249.6-147.2 128-217.6 256 140.8v-288h256v288l249.6-140.8 128 217.6-256 147.2z" />
<glyph unicode="&#xe687;" glyph-name="automation" data-tags="automation" d="M896 192c0-70.692-57.308-128-128-128s-128 57.308-128 128c0 70.692 57.308 128 128 128s128-57.308 128-128zM748.8-64v0c-51.2 0-102.4 12.8-147.2 44.8l-396.8 211.2c-32 25.6-57.6 38.4-83.2 64-76.8 76.8-121.6 185.6-121.6 294.4s44.8 211.2 121.6 288c76.8 76.8 179.2 121.6 288 121.6s211.2-44.8 294.4-121.6c25.6-25.6 38.4-44.8 64-76.8l224-409.6c64-108.8 44.8-243.2-44.8-332.8-57.6-57.6-121.6-83.2-198.4-83.2zM409.6 896c-89.6 0-179.2-38.4-243.2-102.4s-102.4-153.6-102.4-243.2c0-96 38.4-179.2 102.4-243.2 19.2-19.2 38.4-32 70.4-51.2l403.2-217.6c38.4-25.6 76.8-32 115.2-32v0c57.6 0 108.8 19.2 147.2 64 70.4 70.4 83.2 172.8 32 256l-224 409.6c-19.2 25.6-32 44.8-51.2 64-70.4 57.6-153.6 96-249.6 96zM704 512v64l-89.6 32c-6.4 12.8-6.4 19.2-12.8 32l38.4 83.2-44.8 44.8-83.2-38.4c-12.8 6.4-19.2 6.4-32 12.8l-32 89.6h-64l-32-89.6c-12.8-6.4-19.2-6.4-32-12.8l-83.2 38.4-44.8-44.8 38.4-83.2c-6.4-12.8-6.4-19.2-12.8-32l-89.6-32v-64l89.6-32c6.4-12.8 6.4-19.2 12.8-32l-38.4-83.2 44.8-44.8 83.2 38.4c12.8-6.4 19.2-12.8 32-12.8l32-89.6h64l32 89.6c12.8 6.4 19.2 6.4 32 12.8l83.2-38.4 44.8 44.8-38.4 83.2c6.4 12.8 12.8 19.2 12.8 32l89.6 32zM416 448c-51.2 0-96 44.8-96 96s44.8 96 96 96 96-44.8 96-96-44.8-96-96-96z" />
<glyph unicode="&#xe688;" glyph-name="barcode" data-tags="barcode" d="M0 768h64v-640h-64v640zM512 768h128v-640h-128v640zM704 768h64v-640h-64v640zM832 768h64v-640h-64v640zM960 768h64v-640h-64v640zM128 768h192v-640h-192v640zM384 768h64v-640h-64v640z" />
<glyph unicode="&#xe689;" glyph-name="bomb" data-tags="bomb" d="M768 896h64v-64h-64v64zM768 640h64v-64h-64v64zM896 768h64v-64h-64v64zM640 768h64v-64h-64v64zM934.4 825.6l44.8 44.8-44.8 44.8-89.6-89.6 44.8-44.8zM889.6 691.2l-44.8-44.8 89.6-89.6 44.8 44.8-44.8 44.8zM710.4 780.8l44.8 44.8-89.6 89.6-44.8-44.8 44.8-44.8zM665.6 550.4l128 128-44.8 44.8-128-128-44.8 44.8-44.8-51.2c-51.2 32-115.2 51.2-179.2 51.2-192 0-352-160-352-352s160-352 352-352 352 160 352 352c0 64-19.2 121.6-44.8 179.2l44.8 44.8-38.4 38.4zM384 499.2c-128 0-217.6-115.2-217.6-179.2h-64c0 128 153.6 243.2 281.6 243.2v-64z" />
<glyph unicode="&#xe68a;" glyph-name="bug-o" data-tags="bug-o" d="M832 448v64c77.827 71.926 126.763 174.128 127.998 287.776 0.002 17.897-14.325 32.224-31.998 32.224s-32-14.327-32-32c-1.14-71.182-27.591-135.974-70.718-185.977-56.070-62.598-137.623-102.044-228.388-102.044-1.271 0-2.54 0.008-3.807 0.023l-162.367-0.002c-1.431-0.024-3.12-0.038-4.812-0.038-90.471 0-171.789 39.19-227.903 101.521-42.825 49.972-69.057 114.772-70.003 185.676-0.002 17.874-14.329 32.201-32.002 32.201s-32-14.327-32-32c1.426-113.636 50.324-215.577 127.733-287.117l0.267-64.243c-192-3.84-192-90.88-192-222.080 0-17.673 14.327-32 32-32s32 14.327 32 32c0 110.080 0 153.6 128 158.080 1.975-71.041 15.653-138.295 39.164-200.731-24.502-0.379-44.546-11.244-60.316-26.501-28.452-39.912-45.509-89.715-45.509-143.503 0-12.811 0.968-25.395 2.834-37.685l-0.172-7.581c0-17.673 14.327-32 32-32s32 14.327 32 32v8.96c-1.434 9.234-2.254 19.884-2.254 30.726 0 37.597 9.854 72.892 27.12 103.444 10.584 9.698 25.632 16.452 42.254 16.869 43.554-64.453 109.712-110.759 186.879-127.631l2.002 63.633h128v-64c79.169 17.239 145.327 63.545 188.117 126.927 0.845 1.075 1.037 1.076 1.228 1.076 16.264 0 31.112-6.067 42.402-16.061 16.794-29.544 26.735-64.983 26.735-102.745 0-11.379-0.903-22.547-2.64-33.436l0.158-7.76c0-17.673 14.327-32 32-32s32 14.327 32 32v8.96c1.596 10.59 2.507 22.811 2.507 35.245 0 53.693-16.998 103.417-45.905 144.083-15.22 14.458-35.264 25.323-57.612 29.826 21.497 58.711 35.187 126.426 36.994 197.096 128.016 0.79 128.016-45.29 128.016-157.29 0-17.673 14.327-32 32-32s32 14.327 32 32c0 129.92 0 216.96-192 222.080zM384 96c-28.162 16.181-51.498 37.677-69.303 63.305l-15.817 26.295-9.6 24.96c-19.308 51.354-31.346 110.697-33.259 172.591l-0.021 0.849v105.6c36.967-20.861 80.226-35.558 126.245-41.418l1.755-356.662zM576 128h-128v64h128v-64zM576 256h-128v64h128v-64zM576 384h-128v64h128v-64zM768 384c-1.934-62.743-13.972-122.086-34.533-177.279l-8.347-21.121-15.36-25.6c-18.262-26.323-41.598-47.819-68.737-63.456l-1.023 351.456c47.575 5.161 90.921 19.013 129.883 39.965l-1.883-103.965zM512 563.2c91.724 1.167 177.075 27.443 249.79 72.25 2.974 2.296 6.263 8.087 6.263 14.646 0 0.501-0.019 0.998-0.057 1.489-4.194 73.083-50.013 134.574-113.968 161.398-8.751 3.171-14.033 10.249-14.033 18.561 0 0.16 0.002 0.32 0.006 0.48v95.976c0 17.673-14.327 32-32 32s-32-14.327-32-32v-76.8c0-10.604-8.596-19.2-19.2-19.2 0 0 0 0 0 0h-89.6c-10.604 0-19.2 8.596-19.2 19.2v76.8c0 17.673-14.327 32-32 32s-32-14.327-32-32v-96c-0.355-7.979-5.529-14.663-12.666-17.238-65.681-27.506-111.641-89.582-115.316-162.8-0.051-0.868-0.071-1.365-0.071-1.866 0-6.559 3.289-12.351 8.309-15.814 61.38-45.005 138.326-71.991 221.576-71.991 9.208 0 18.339 0.33 27.382 0.979zM640 768c35.346 0 64-28.654 64-64s-28.654-64-64-64c-35.346 0-64 28.654-64 64s28.654 64 64 64zM384 768c35.346 0 64-28.654 64-64s-28.654-64-64-64c-35.346 0-64 28.654-64 64s28.654 64 64 64z" />
<glyph unicode="&#xe68b;" glyph-name="bug" data-tags="bug" d="M512 563.2c91.724 1.167 177.075 27.443 249.79 72.25 2.974 2.296 6.263 8.087 6.263 14.646 0 0.501-0.019 0.998-0.057 1.489-4.194 73.083-50.013 134.574-113.968 161.398-8.751 3.171-14.033 10.249-14.033 18.561 0 0.16 0.002 0.32 0.006 0.48v95.976c0 17.673-14.327 32-32 32s-32-14.327-32-32v-76.8c0-10.604-8.596-19.2-19.2-19.2 0 0 0 0 0 0h-89.6c-10.604 0-19.2 8.596-19.2 19.2v76.8c0 17.673-14.327 32-32 32s-32-14.327-32-32v-96c-0.355-7.979-5.529-14.663-12.666-17.238-65.681-27.506-111.641-89.582-115.316-162.8-0.051-0.868-0.071-1.365-0.071-1.866 0-6.559 3.289-12.351 8.309-15.814 61.38-45.005 138.326-71.991 221.576-71.991 9.208 0 18.339 0.33 27.382 0.979zM640 768c35.346 0 64-28.654 64-64s-28.654-64-64-64c-35.346 0-64 28.654-64 64s28.654 64 64 64zM384 768c35.346 0 64-28.654 64-64s-28.654-64-64-64c-35.346 0-64 28.654-64 64s28.654 64 64 64zM832 448v64c77.827 71.926 126.763 174.128 127.998 287.776 0.002 17.897-14.325 32.224-31.998 32.224s-32-14.327-32-32c-1.14-71.182-27.591-135.974-70.718-185.977-56.070-62.598-137.623-102.044-228.388-102.044-1.271 0-2.54 0.008-3.807 0.023l-162.367-0.002c-1.431-0.024-3.12-0.038-4.812-0.038-90.471 0-171.789 39.19-227.903 101.521-42.825 49.972-69.057 114.772-70.003 185.676-0.002 17.874-14.329 32.201-32.002 32.201s-32-14.327-32-32c1.426-113.636 50.324-215.577 127.733-287.117l0.267-64.243c-192-3.84-192-90.88-192-222.080 0-17.673 14.327-32 32-32s32 14.327 32 32c0 110.080 0 153.6 128 158.080 1.975-71.041 15.653-138.295 39.164-200.731-24.502-0.379-44.546-11.244-60.316-26.501-28.452-39.912-45.509-89.715-45.509-143.503 0-12.811 0.968-25.395 2.834-37.685l-0.172-7.581c0-17.673 14.327-32 32-32s32 14.327 32 32v8.96c-1.434 9.234-2.254 19.884-2.254 30.726 0 37.597 9.854 72.892 27.12 103.444 10.584 9.698 25.632 16.452 42.254 16.869 37.6-70.061 106.677-118.98 187.794-127.901l1.087 63.903h128v-64c82.204 9.018 151.28 57.937 188.164 126.703 0.798 1.299 0.989 1.299 1.181 1.299 16.264 0 31.112-6.067 42.402-16.061 16.794-29.544 26.735-64.983 26.735-102.745 0-11.379-0.903-22.547-2.64-33.436l0.158-7.76c0-17.673 14.327-32 32-32s32 14.327 32 32v8.96c1.596 10.59 2.507 22.811 2.507 35.245 0 53.693-16.998 103.417-45.905 144.083-15.22 14.458-35.264 25.323-57.612 29.826 21.497 58.711 35.187 126.426 36.994 197.096 128.016 0.79 128.016-45.29 128.016-157.29 0-17.673 14.327-32 32-32s32 14.327 32 32c0 129.92 0 216.96-192 222.080zM576 128h-128v64h128v-64zM576 256h-128v64h128v-64zM576 384h-128v64h128v-64z" />
<glyph unicode="&#xe68c;" glyph-name="calc" data-tags="calc" d="M576 768h384v-128h-384v128zM576 256h384v-128h-384v128zM320 896h-128v-128h-128v-128h128v-128h128v128h128v128h-128zM448 294.4l-89.6 89.6-102.4-102.4-102.4 102.4-89.6-89.6 102.4-102.4-102.4-102.4 89.6-89.6 102.4 102.4 102.4-102.4 89.6 89.6-102.4 102.4zM832 32c0-35.346-28.654-64-64-64s-64 28.654-64 64c0 35.346 28.654 64 64 64s64-28.654 64-64zM832 352c0-35.346-28.654-64-64-64s-64 28.654-64 64c0 35.346 28.654 64 64 64s64-28.654 64-64z" />
<glyph unicode="&#xe68d;" glyph-name="chart-line" data-tags="chart-line" d="M0-64h1024v1024h-64v-166.4l-256-217.6v384h-64v-409.6l-256 57.6v352h-64v-364.8l-256-185.6v550.4h-64zM320 64h-256v108.8l256 185.6v-294.4zM640 64h-256v339.2l6.4 6.4 249.6-57.6v-288zM960 64h-256v275.2h6.4l249.6 204.8v-480z" />
<glyph unicode="&#xe68e;" glyph-name="chart" data-tags="chart" d="M0 0h1024v-64h-1024v64zM0 960h64v-1024h-64v1024zM576 448l-185.6 192-262.4-256v-320h896v838.4z" />
<glyph unicode="&#xe68f;" glyph-name="code" data-tags="code" d="M332.8 64l288 768h70.4l-288-768zM710.4 128h76.8l236.8 320-236.8 320h-83.2l243.2-320zM313.6 128h-76.8l-236.8 320 236.8 320h83.2l-243.2-320z" />
<glyph unicode="&#xe690;" glyph-name="coffee" data-tags="coffee" d="M896 128l-256-64h-384l-256 64v64h896zM940.8 768h-108.8v64h-768v-320c0-96 51.2-179.2 128-217.6v-38.4h512v38.4c57.6 32 102.4 89.6 121.6 153.6 0 0 6.4 0 6.4 0 147.2 0 185.6 128 192 224 6.4 51.2-32 96-83.2 96zM832 512v192h108.8c6.4 0 12.8-6.4 12.8-6.4s6.4-6.4 6.4-19.2c-12.8-166.4-102.4-166.4-128-166.4z" />
<glyph unicode="&#xe691;" glyph-name="cogs" data-tags="cogs" d="M768 512v128l-76.8 25.6c-6.4 19.2-12.8 44.8-25.6 64l38.4 76.8-96 83.2-70.4-32c-19.2 12.8-38.4 19.2-64 25.6l-25.6 76.8h-128l-25.6-76.8c-19.2-6.4-44.8-12.8-64-25.6l-70.4 32-89.6-89.6 38.4-76.8c-12.8-19.2-19.2-38.4-25.6-64l-83.2-19.2v-128l76.8-25.6c6.4-19.2 12.8-44.8 25.6-64l-32-70.4 89.6-89.6 76.8 38.4c19.2-12.8 38.4-19.2 64-25.6l19.2-83.2h128l25.6 76.8c19.2 6.4 44.8 12.8 64 25.6l76.8-38.4 89.6 89.6-38.4 76.8c12.8 19.2 19.2 38.4 25.6 64l76.8 25.6zM192 576c0 108.8 83.2 192 192 192s192-83.2 192-192c0-108.8-83.2-192-192-192s-192 83.2-192 192zM480 576c0-53.019-42.981-96-96-96s-96 42.981-96 96c0 53.019 42.981 96 96 96s96-42.981 96-96zM1024 768v64h-38.4c0 12.8-6.4 25.6-12.8 32l25.6 25.6-44.8 44.8-25.6-25.6c-12.8 6.4-19.2 12.8-32 12.8v38.4h-64v-38.4c-12.8 0-25.6-6.4-32-12.8l-25.6 25.6-44.8-44.8 25.6-25.6c-6.4-12.8-12.8-19.2-12.8-32h-38.4v-64h38.4c0-12.8 6.4-25.6 12.8-32l-25.6-25.6 44.8-44.8 25.6 25.6c12.8-6.4 19.2-12.8 32-12.8v-38.4h64v38.4c12.8 0 25.6 6.4 32 12.8l25.6-25.6 44.8 44.8-25.6 25.6c6.4 12.8 12.8 19.2 12.8 32h38.4zM864 736c-38.4 0-64 25.6-64 64s25.6 64 64 64 64-25.6 64-64c0-38.4-25.6-64-64-64zM985.6 204.8c-6.4 19.2-12.8 38.4-25.6 57.6l19.2 38.4-44.8 44.8-32-25.6c-19.2 12.8-38.4 19.2-57.6 25.6l-12.8 38.4h-64l-12.8-38.4c-19.2-6.4-38.4-12.8-57.6-25.6l-38.4 19.2-44.8-44.8 19.2-38.4c-12.8-19.2-19.2-38.4-25.6-57.6l-32-6.4v-64l38.4-12.8c6.4-19.2 12.8-38.4 25.6-57.6l-19.2-38.4 44.8-44.8 38.4 19.2c19.2-12.8 38.4-19.2 57.6-25.6l6.4-32h64l12.8 38.4c19.2 6.4 38.4 12.8 57.6 25.6l38.4-19.2 44.8 44.8-25.6 32c12.8 19.2 19.2 38.4 25.6 57.6l38.4 12.8v64l-38.4 12.8zM800 64c-51.2 0-96 44.8-96 96s44.8 96 96 96 96-44.8 96-96-44.8-96-96-96z" />
<glyph unicode="&#xe692;" glyph-name="controller" data-tags="controller" d="M380.88 944.066l62.77 12.486 12.486-62.77-62.77-12.486-12.486 62.77zM568.12 2.147l62.77 12.486 12.486-62.77-62.77-12.486-12.486 62.77zM3.54 379.486l62.77 12.486 12.486-62.77-62.77-12.486-12.486 62.77zM945.46 566.726l62.77 12.486 12.486-62.77-62.77-12.486-12.486 62.77zM734.154 838.607l35.556 53.214 53.214-35.556-35.556-53.214-53.214 35.556zM200.896 35.808l35.84 53.12 53.12-35.84-35.84-53.12-53.12 35.84zM68.448 704.704l35.84 53.12 53.12-35.84-35.84-53.12-53.12 35.84zM866.994 172.857l35.556 53.214 53.214-35.556-35.556-53.214-53.214 35.556zM568.020 893.474l12.486 62.77 62.77-12.486-12.486-62.77-62.77 12.486zM380.98-47.686l12.486 62.77 62.77-12.486-12.486-62.77-62.77 12.486zM3.92 516.414l12.486 62.77 62.77-12.486-12.486-62.77-62.77 12.486zM945.080 329.373l12.486 62.77 62.77-12.486-12.486-62.77-62.77 12.486zM200.884 855.833l53.214 35.556 35.556-53.214-53.214-35.556-35.556 53.214zM734.514 57.543l53.214 35.556 35.556-53.214-53.214-35.556-35.556 53.214zM68.554 189.873l53.214 35.556 35.556-53.214-53.214-35.556-35.556 53.214zM866.496 727.712l53.12 35.84 35.84-53.12-53.12-35.84-35.84 53.12zM896 448c-0.202 121.27-56.588 229.329-144.511 299.566l-212.609-319.406-53.76 37.76 212.48 320c-53.524 30.1-117.489 47.83-185.596 47.83-212.077 0-384-171.923-384-384s171.923-384 384-384c211.462 0 383.002 170.926 383.996 382.155z" />
<glyph unicode="&#xe693;" glyph-name="corner-lower-left" data-tags="corner-lower-left" d="M1024-64l-1024 1024v-1024z" />
<glyph unicode="&#xe694;" glyph-name="corner-lower-right" data-tags="corner-lower-right" d="M1024-64h-1024l1024 1024z" />
<glyph unicode="&#xe695;" glyph-name="corner-upper-left" data-tags="corner-upper-left" d="M0-64l1024 1024h-1024z" />
<glyph unicode="&#xe696;" glyph-name="corner-upper-right" data-tags="corner-upper-right" d="M1024-64l-1024 1024h1024z" />
<glyph unicode="&#xe697;" glyph-name="cube" data-tags="cube" d="M512 960l-512-128v-640l512-256 512 256v640l-512 128zM921.6 793.6l-377.6-140.8-422.4 140.8 390.4 102.4 409.6-102.4zM64 230.4v518.4l448-153.6v-588.8l-448 224z" />
<glyph unicode="&#xe698;" glyph-name="cubes" data-tags="cubes" d="M768 576v256l-256 128-256-128v-256l-256-128v-320l256-128 256 128 256-128 256 128v320zM517.76 888.32l186.24-92.16-166.4-83.2-186.24 92.16zM320 782.080l192-96v-230.4l-192 96v230.4zM256 71.68l-192 96v230.4l192-96v-230.4zM273.92 327.68l-184.32 93.44 166.4 83.2 184.32-92.16zM768 71.68l-192 96v230.4l192-96v-230.4zM785.92 327.68l-184.32 93.44 166.4 83.2 184.32-92.16z" />
<glyph unicode="&#xe699;" glyph-name="download-alt" data-tags="download-alt" d="M0 64h1024v-128h-1024v128zM512 128l320 320h-192v512h-256v-512h-192z" />
<glyph unicode="&#xe69a;" glyph-name="eraser" data-tags="eraser" d="M518.4 64l409.6 460.8c38.4 44.8 38.4 115.2-6.4 160l-172.8 172.8c-19.2 25.6-51.2 38.4-83.2 38.4h-115.2c-32 0-64-12.8-89.6-38.4l-428.8-486.4c-38.4-44.8-38.4-121.6 6.4-160l172.8-172.8c19.2-25.6 51.2-38.4 83.2-38.4h729.6v64h-505.6zM435.2 70.4c0 0 0 6.4 0 0l-172.8 172.8c-25.6 25.6-25.6 57.6 0 83.2l217.6 249.6h-64l-192-211.2c-38.4-44.8-38.4-108.8 6.4-153.6l147.2-147.2h-83.2c-12.8 0-25.6 6.4-38.4 12.8l-179.2 179.2c-19.2 19.2-19.2 51.2 0 70.4l224 249.6h115.2l224 256h64l-224-256 198.4-236.8-224-256c-6.4-6.4-12.8-6.4-19.2-12.8z" />
<glyph unicode="&#xe69b;" glyph-name="facebook-square" data-tags="facebook-square" d="M0 960v-1024h1024v1024h-1024zM825.6 422.4h-134.4v-358.4h-134.4v358.4h-96v128h96c0 0 0 51.2 0 108.8 0 96 57.6 172.8 185.6 172.8 51.2 0 89.6-6.4 89.6-6.4v-121.6c0 0-38.4 0-83.2 0s-51.2-19.2-51.2-57.6c0-6.4 0-6.4 0-6.4 0-12.8 0-32 0-89.6h134.4l-6.4-128z" />
<glyph unicode="&#xe69c;" glyph-name="facebook" data-tags="facebook" d="M460.8-64v480h-128v172.8h128c0 0 0 70.4 0 147.2 0 115.2 76.8 224 249.6 224 70.4 0 121.6-6.4 121.6-6.4l-6.4-160c0 0-51.2 0-108.8 0-64 0-70.4-25.6-70.4-76.8 0-38.4 0 83.2 0-128h185.6l-6.4-172.8h-179.2v-480h-185.6z" />
<glyph unicode="&#xe69d;" glyph-name="female" data-tags="female" d="M640 832c0-70.692-57.308-128-128-128s-128 57.308-128 128c0 70.692 57.308 128 128 128s128-57.308 128-128zM640 448v96l115.2-115.2c19.2-19.2 44.8-19.2 64 0s19.2 51.2 0 64l-166.4 166.4c-25.6 32-64 44.8-108.8 44.8h-64c-44.8 0-83.2-12.8-108.8-44.8l-166.4-166.4c-19.2-19.2-19.2-51.2 0-64 19.2-19.2 44.8-19.2 64 0l115.2 115.2v-96l-256-320h256v-192h256v192h256l-256 320z" />
<glyph unicode="&#xe69e;" glyph-name="file-font" data-tags="file-font" d="M640 960h-512v-1024h768v768l-256 256zM576 640h256v-640h-640v896h384v-256zM640 704v192l192-192h-192zM320 512v-128h128v-320h128v320h128v128z" />
<glyph unicode="&#xe69f;" glyph-name="file-presentation" data-tags="file-presentation" d="M640 960h-512v-1024h768v768l-256 256zM832 0h-640v896h384v-256h256v-640zM640 704v192l192-192h-192zM576 576h-128v-64h-192v-384h128v-64h64v64h128v-64h64v64h128v384h-192v64zM704 448v-256h-384v256h384zM448 384v-128l128 64z" />
<glyph unicode="&#xe6a0;" glyph-name="file-table" data-tags="file-table" d="M640 960h-512v-1024h768v768l-256 256zM576 640h256v-640h-640v896h384v-256zM640 704v192l192-192h-192zM256 512v-384h512v384h-512zM384 192h-64v64h64v-64zM384 320h-64v64h64v-64zM576 192h-128v64h128v-64zM576 320h-128v64h128v-64zM704 192h-64v64h64v-64zM704 320h-64v64h64v-64z" />
<glyph unicode="&#xe6a1;" glyph-name="fill" data-tags="fill" d="M832 32c29.976 141.279 63.067 259.211 102.624 374.134 26.309-114.923 59.4-232.856 85.59-353.363 3.786-73.791-39.195-116.772-92.214-116.772s-96 42.981-96 96zM512 896l-92.16-92.16-128 128c-17.633 16.756-41.533 27.063-67.84 27.063s-50.207-10.307-67.882-27.103c-17.305-17.329-28.033-41.312-28.033-67.8s10.728-50.472 28.076-67.841l127.999-127.999-284.16-284.16 448-448 512 512zM512 805.76l357.76-357.76h-715.52l176 176c4.521-2.677 9.965-4.259 15.779-4.259 17.32 0 31.36 14.040 31.36 31.36 0 5.813-1.582 11.257-4.338 15.925l46.16 45.934 98.56-97.92c5.815-5.815 13.847-9.411 22.72-9.411 17.745 0 32.131 14.386 32.131 32.131 0 8.873-3.596 16.905-9.411 22.72l-97.92 97.92zM201.6 841.6c-5.846 5.8-9.466 13.837-9.466 22.72s3.619 16.92 9.463 22.718c5.871 5.697 13.886 9.208 22.722 9.208s16.851-3.511 22.728-9.213l127.992-127.992-45.44-45.44z" />
<glyph unicode="&#xe6a2;" glyph-name="filter" data-tags="filter" d="M64 832h896v-128l-384-320v-448l-128 128v320l-384 320v128zM64 960h896v-64h-896v64z" />
<glyph unicode="&#xe6a3;" glyph-name="fire" data-tags="fire" d="M313.6-51.2c0 0-249.6 25.6-249.6 364.8 0 262.4 198.4 416 198.4 416s83.2-89.6 147.2-121.6c64-38.4 89.6 352 89.6 352s460.8-249.6 460.8-627.2c0-390.4-256-377.6-256-377.6s115.2 153.6 115.2 332.8c0 192-249.6 428.8-249.6 428.8s-32-281.6-134.4-320c-102.4 57.6-160 147.2-160 147.2s-236.8-371.2 38.4-595.2zM524.8-70.4c-128 6.4-236.8 89.6-236.8 204.8s44.8 166.4 44.8 166.4 32-64 70.4-96 115.2-51.2 153.6-6.4c38.4 38.4 51.2 147.2 51.2 147.2s89.6-70.4 76.8-192c-6.4-128-57.6-224-160-224z" />
<glyph unicode="&#xe6a4;" glyph-name="frown-o" data-tags="frown-o" d="M512 896c249.6 0 448-198.4 448-448s-198.4-448-448-448-448 198.4-448 448 198.4 448 448 448zM512 960c-281.6 0-512-230.4-512-512s230.4-512 512-512 512 230.4 512 512-230.4 512-512 512v0zM448 576c0-35.346-28.654-64-64-64s-64 28.654-64 64c0 35.346 28.654 64 64 64s64-28.654 64-64zM704 576c0-35.346-28.654-64-64-64s-64 28.654-64 64c0 35.346 28.654 64 64 64s64-28.654 64-64zM723.2 172.8c-44.8 70.4-128 115.2-211.2 115.2s-166.4-44.8-211.2-115.2l-51.2 38.4c57.6 89.6 153.6 140.8 262.4 140.8s204.8-51.2 262.4-140.8l-51.2-38.4z" />
<glyph unicode="&#xe6a5;" glyph-name="gavel" data-tags="gavel" d="M409.6 697.6v0c-25.6 25.6-25.6 57.6-6.4 76.8l166.4 166.4c19.2 19.2 51.2 19.2 76.8 0l6.4-6.4c19.2-19.2 19.2-51.2 0-76.8l-166.4-160c-19.2-19.2-57.6-19.2-76.8 0zM768 339.2v0c-25.6 25.6-25.6 57.6-6.4 83.2l166.4 166.4c19.2 19.2 51.2 19.2 76.8 0l6.4-6.4c19.2-19.2 19.2-51.2 0-76.8l-166.4-166.4c-25.6-19.2-57.6-19.2-76.8 0zM640 467.2l-108.8 108.8c-25.6 25.6-25.6 64 0 89.6l147.2 147.2c25.6 25.6 64 25.6 89.6 0l108.8-108.8c25.6-25.6 25.6-64 0-89.6l-147.2-147.2c-25.6-25.6-64-25.6-89.6 0zM256 51.2c38.4 38.4 256 358.4 288 339.2 25.6-12.8 64 32 64 32l-121.6 121.6c0 0-44.8-38.4-32-64 19.2-32-300.8-249.6-339.2-288 0 0-179.2-140.8-89.6-230.4s230.4 89.6 230.4 89.6z" />
<glyph unicode="&#xe6a6;" glyph-name="google-plus-square" data-tags="google-plus-square" d="M320 742.4c-51.2 0-83.2-51.2-76.8-115.2 6.4-70.4 57.6-121.6 108.8-128 51.2 0 83.2 51.2 76.8 121.6-6.4 64-57.6 121.6-108.8 121.6zM345.6 364.8c-76.8 0-147.2-44.8-147.2-102.4s57.6-108.8 134.4-108.8c108.8 0 147.2 44.8 147.2 102.4 0 6.4 0 12.8 0 19.2-6.4 32-38.4 51.2-83.2 76.8-12.8 12.8-32 12.8-51.2 12.8zM0 960v-1024h1024v1024h-1024zM505.6 620.8c0-44.8-25.6-76.8-57.6-102.4s-38.4-38.4-38.4-57.6c0-19.2 32-51.2 51.2-64 51.2-38.4 70.4-70.4 70.4-128 0-70.4-70.4-147.2-198.4-147.2-108.8 0-204.8 44.8-204.8 115.2 0 76.8 83.2 147.2 198.4 147.2 12.8 0 25.6 0 32 0-12.8 19.2-25.6 38.4-25.6 57.6 0 12.8 6.4 25.6 12.8 38.4-6.4 0-12.8 0-19.2 0-89.6 0-153.6 64-153.6 147.2 0 76.8 83.2 147.2 172.8 147.2 51.2 0 198.4 0 198.4 0l-44.8-38.4h-64c44.8-12.8 70.4-64 70.4-115.2zM896 608h-134.4v-128h-32v128h-128v32h128v128h32v-128h134.4v-32z" />
<glyph unicode="&#xe6a7;" glyph-name="google-plus" data-tags="google-plus" d="M1024 710.4h-179.2v166.4h-38.4v-166.4h-172.8v-51.2h172.8v-166.4h38.4v166.4h179.2zM441.6 384c-25.6 12.8-70.4 57.6-70.4 83.2s6.4 44.8 51.2 76.8c44.8 32 76.8 76.8 76.8 134.4 0 70.4-32 134.4-83.2 153.6h83.2l57.6 44.8c0 0-198.4 0-268.8 0-121.6 0-230.4-89.6-230.4-198.4s83.2-192 204.8-192c6.4 0 19.2 0 25.6 0-12.8-12.8-12.8-25.6-12.8-44.8 0-32 19.2-51.2 38.4-76.8-12.8 0-32 0-44.8 0-147.2 0-262.4-96-262.4-192s128-160 275.2-160c166.4 0 262.4 96 262.4 192-6.4 83.2-32 128-102.4 179.2zM300.8 518.4c-70.4 0-134.4 76.8-147.2 166.4s32 160 102.4 160c70.4 0 134.4-76.8 147.2-166.4s-32-166.4-102.4-160zM275.2 57.6c-102.4 0-179.2 64-179.2 140.8s89.6 140.8 192 140.8c25.6 0 44.8-6.4 64-12.8 57.6-38.4 96-57.6 108.8-102.4 0-6.4 6.4-19.2 6.4-25.6 0-76.8-51.2-140.8-192-140.8z" />
<glyph unicode="&#xe6a8;" glyph-name="hands-up" data-tags="hands-up" d="M640 832c0-70.692-57.308-128-128-128s-128 57.308-128 128c0 70.692 57.308 128 128 128s128-57.308 128-128zM384-64h96v320h64v-320h96v576c-0.027 0.998-0.043 2.173-0.043 3.352 0 33.354 12.386 63.815 32.809 87.035l209.793 212.333c13.821 8.283 22.928 23.182 22.928 40.208 0 25.803-20.917 46.72-46.72 46.72-17.026 0-31.925-9.108-40.091-22.717l-151.158-152.532c-13.595-13.83-32.503-22.401-53.413-22.401-0.122 0-0.244 0-0.366 0.001h-203.501c-0.103-0.001-0.225-0.001-0.347-0.001-20.91 0-39.818 8.57-53.403 22.39l-148.49 152.971c-8.283 13.821-23.182 22.928-40.208 22.928-25.803 0-46.72-20.917-46.72-46.72 0-17.026 9.108-31.925 22.717-40.091l207.572-213.238c20.297-23.073 32.683-53.534 32.683-86.888 0-1.179-0.015-2.353-0.046-3.525l0.004-575.827z" />
<glyph unicode="&#xe6a9;" glyph-name="hash" data-tags="hash" d="M960 576v128h-166.4l38.4 179.2-128 25.6-44.8-204.8h-192l44.8 179.2-128 25.6-44.8-204.8h-211.2v-128h185.6l-57.6-256h-192v-128h166.4l-38.4-179.2 128-25.6 44.8 204.8h192l-44.8-179.2 128-25.6 44.8 204.8h211.2v128h-185.6l57.6 256h192zM576 320h-192l64 256h192l-64-256z" />
<glyph unicode="&#xe6aa;" glyph-name="institution" data-tags="institution" d="M512 960l-512-192v-128h1024v128zM0 64h1024v-128h-1024v128zM1024 512v64h-1024v-64h64v-320h-64v-64h1024v64h-64v320h64zM256 192h-64v320h64v-320zM448 192h-64v320h64v-320zM640 192h-64v320h64v-320zM832 192h-64v320h64v-320z" />
<glyph unicode="&#xe6ab;" glyph-name="key-o" data-tags="key-o" d="M832 960l-448-390.4c-19.2 6.4-38.4 6.4-64 6.4-179.2 0-320-140.8-320-320s147.2-320 320-320 320 140.8 320 320c0 19.2 0 38.4-6.4 57.6l70.4 70.4v128h128v128h128l64 64v256h-192zM768 576h-108.8l108.8 89.6v-89.6zM960 729.6l-25.6-25.6h-121.6l147.2 128v-102.4zM467.2 473.6l44.8-25.6 128 108.8v-147.2l-51.2-51.2-19.2-25.6 6.4-32c0-12.8 6.4-32 6.4-44.8 0-140.8-115.2-256-256-256s-256 115.2-256 256 115.2 256 256 256c19.2 0 32 0 51.2-6.4l32-6.4 25.6 19.2 422.4 377.6h102.4l-492.8-422.4zM384 224c0-53.019-42.981-96-96-96s-96 42.981-96 96c0 53.019 42.981 96 96 96s96-42.981 96-96z" />
<glyph unicode="&#xe6ac;" glyph-name="key" data-tags="key" d="M518.4 512c-12.8 6.4-25.6 12.8-38.4 19.2l480 428.8h-128l-448-390.4c-19.2 6.4-38.4 6.4-64 6.4-179.2 0-320-140.8-320-320s147.2-320 320-320 320 140.8 320 320c0 38.4-6.4 76.8-19.2 108.8l83.2 83.2v128h128v128h128l64 64v192l-505.6-448zM256 115.2c-44.8 0-76.8 38.4-76.8 76.8s38.4 76.8 76.8 76.8 76.8-38.4 76.8-76.8-32-76.8-76.8-76.8z" />
<glyph unicode="&#xe6ad;" glyph-name="lifebuoy" data-tags="lifebuoy" d="M512 960c-281.6 0-512-230.4-512-512s230.4-512 512-512 512 230.4 512 512-230.4 512-512 512zM256 448c0 140.8 115.2 256 256 256s256-115.2 256-256c0-140.8-115.2-256-256-256s-256 115.2-256 256zM806.4 332.8c19.2 32 25.6 76.8 25.6 115.2s-6.4 83.2-25.6 115.2l96 96c38.4-64 57.6-134.4 57.6-211.2s-19.2-147.2-51.2-211.2l-102.4 96zM723.2 844.8l-96-102.4c-32 19.2-76.8 25.6-115.2 25.6s-83.2-6.4-115.2-25.6l-96 102.4c64 32 134.4 51.2 211.2 51.2s147.2-19.2 211.2-51.2zM115.2 659.2l96-96c-12.8-32-19.2-76.8-19.2-115.2s6.4-83.2 25.6-115.2l-96-96c-38.4 64-57.6 134.4-57.6 211.2s19.2 147.2 51.2 211.2zM300.8 51.2l96 96c32-12.8 76.8-19.2 115.2-19.2s83.2 6.4 115.2 25.6l96-96c-64-38.4-134.4-57.6-211.2-57.6s-147.2 19.2-211.2 51.2z" />
<glyph unicode="&#xe6ae;" glyph-name="lightbulb" data-tags="lightbulb" d="M512 960c-176.731 0-320-143.269-320-320 0.803-106.983 56.169-200.863 139.618-255.277l52.382-128.723c-17.673 0-32-14.327-32-32s14.327-32 32-32c-17.673 0-32-14.327-32-32s14.327-32 32-32c-17.673 0-32-14.327-32-32s14.327-32 32-32c-17.673 0-32-14.327-32-32s14.327-32 32-32h26.24c21.87-35.212 58.578-59.433 101.168-63.949 43.774 4.516 80.482 28.737 102.018 63.373l26.574 0.576c17.673 0 32 14.327 32 32s-14.327 32-32 32c17.673 0 32 14.327 32 32s-14.327 32-32 32c17.673 0 32 14.327 32 32s-14.327 32-32 32c17.673 0 32 14.327 32 32s-14.327 32-32 32l51.2 128c84.631 55.137 139.997 149.017 140.799 255.88 0.001 176.852-143.268 320.12-319.999 320.12zM656 434.56l-16-10.88-7.040-18.56-56.96-136.96c-2.667-7.114-9.384-12.098-17.272-12.16h-96.648c-6.599 1.284-11.873 5.921-14.040 12.030l-55.72 137.090-8.32 18.56-16 11.52c-66.88 44.776-110.661 119.535-111.998 204.599-0.002 141.586 114.613 256.201 255.998 256.201s256-114.615 256-256c-1.115-85.509-44.949-160.546-111.096-204.87zM658.56 768c-36.761 39.184-88.769 63.688-146.503 64l-0.057-64c37.455-0.116 71.354-15.248 96.010-39.69 17.793-24.681 29.397-54.925 31.952-87.709l64.038-0.602c-2.894 48.354-19.493 92.331-45.925 128.701z" />
<glyph unicode="&#xe6af;" glyph-name="sign-in-alt" data-tags="sign-in-alt" d="M0 960h128v-1024h-128v1024zM192 320h512v-192l320 320-320 320v-192h-512z" />
<glyph unicode="&#xe6b0;" glyph-name="sign-out-alt" data-tags="sign-out-alt" d="M896 960h128v-1024h-128v1024zM512 576h-512v-256h512v-192l320 320-320 320z" />
<glyph unicode="&#xe6b1;" glyph-name="magic" data-tags="magic" d="M0 640h192v-64h-192v64zM320 960h64v-192h-64v192zM384 256h-64v160l64-64zM704 576h-96l-64 64h160zM200.407 501.668l45.254-45.254-190.068-190.068-45.254 45.254 190.068 190.068zM648.407 949.668l45.254-45.254-190.068-190.068-45.254 45.254 190.068 190.068zM53.491 947.241l221.747-221.747-45.254-45.254-221.747 221.747 45.254 45.254zM390.4 697.6l-134.4-128 627.2-633.6 140.8 134.4-633.6 627.2zM390.4 608l153.6-160-38.4-38.4-160 160 44.8 38.4z" />
<glyph unicode="&#xe6b2;" glyph-name="male" data-tags="male" d="M640 832c0-70.692-57.308-128-128-128s-128 57.308-128 128c0 70.692 57.308 128 128 128s128-57.308 128-128zM818.56 491.52l-166.4 168.32c-26.921 27.257-64.287 44.143-105.597 44.16h-68.483c-0.014 0-0.031 0-0.048 0-41.502 0-79.061-16.882-106.185-44.153l-166.407-168.327c-13.821-8.283-22.928-23.182-22.928-40.208 0-25.803 20.917-46.72 46.72-46.72 17.026 0 31.925 9.108 40.091 22.717l114.678 114.772v-606.080h96v320h64v-320h96v606.080l112-115.2c8.623-11.214 22.043-18.369 37.135-18.369 25.803 0 46.72 20.917 46.72 46.72 0 14.611-6.707 27.656-17.21 36.223z" />
<glyph unicode="&#xe6b3;" glyph-name="medal" data-tags="medal" d="M640 179.2c-19.2 0-32 6.4-51.2 12.8l-76.8 32-76.8-32c-12.8-6.4-32-12.8-51.2-12.8-12.8 0-19.2 0-32 6.4l-32-249.6 192 128 192-128-38.4 249.6c-6.4-6.4-19.2-6.4-25.6-6.4zM825.6 582.4c-6.4 12.8-6.4 32 0 44.8l38.4 76.8c12.8 25.6 0 57.6-32 70.4l-83.2 32c-12.8 6.4-25.6 19.2-32 32l-32 83.2c-6.4 25.6-25.6 38.4-44.8 38.4-6.4 0-19.2 0-25.6-6.4l-83.2-38.4c-6.4 0-12.8 0-19.2 0s-12.8 0-19.2 6.4l-83.2 32c-6.4 6.4-19.2 6.4-25.6 6.4-19.2 0-38.4-12.8-51.2-32l-32-89.6c0-12.8-12.8-25.6-25.6-32l-89.6-32c-25.6-6.4-38.4-38.4-25.6-70.4l38.4-83.2c6.4-12.8 6.4-32 0-44.8l-38.4-76.8c-12.8-25.6 0-57.6 32-70.4l83.2-32c12.8-6.4 25.6-19.2 32-32l32-83.2c6.4-25.6 25.6-38.4 44.8-38.4 6.4 0 12.8 0 19.2 6.4l83.2 38.4c6.4 0 12.8 6.4 19.2 6.4s12.8 0 19.2-6.4l83.2-38.4c6.4-6.4 12.8-6.4 19.2-6.4 19.2 0 38.4 12.8 51.2 32l32 83.2c6.4 12.8 19.2 25.6 32 32l83.2 32c25.6 12.8 44.8 44.8 32 70.4l-32 89.6zM512 345.6c-140.8 0-256 115.2-256 256s115.2 256 256 256 256-115.2 256-256c0-140.8-115.2-256-256-256zM704 601.6c0-106.039-85.961-192-192-192s-192 85.961-192 192c0 106.039 85.961 192 192 192s192-85.961 192-192z" />
<glyph unicode="&#xe6b4;" glyph-name="megafone" data-tags="megafone" d="M992 614.4l-32 25.6v256c0 38.4-25.6 64-64 64s-64-25.6-64-64v-32c-128-57.6-320-160-512-160h-160c-89.6 0-160-76.8-160-160 0-57.6 32-108.8 76.8-134.4l70.4-377.6c0-19.2 19.2-32 44.8-32 6.4 0 6.4 0 12.8 0l230.4 44.8c25.6 6.4 38.4 25.6 32 44.8-19.2 38.4-51.2 96-76.8 115.2-12.8 6.4-32 57.6-44.8 115.2h38.4v57.6c172.8-19.2 384-102.4 448-153.6v-32c0-38.4 25.6-64 64-64s64 25.6 64 64v256l25.6 19.2c25.6 19.2 38.4 44.8 38.4 70.4v12.8c0 25.6-12.8 44.8-32 64zM128 640h192v-64h-192v64zM358.4 153.6c6.4 0 19.2-19.2 32-44.8l-179.2-44.8-64 320h121.6c12.8-83.2 38.4-204.8 89.6-230.4zM832 300.8c-102.4 51.2-281.6 128-448 147.2v192c166.4 19.2 345.6 89.6 448 147.2v-486.4z" />
<glyph unicode="&#xe6b5;" glyph-name="meh-o" data-tags="meh-o" d="M512 896c249.6 0 448-198.4 448-448s-198.4-448-448-448-448 198.4-448 448 198.4 448 448 448zM512 960c-281.6 0-512-230.4-512-512s230.4-512 512-512 512 230.4 512 512-230.4 512-512 512v0zM448 576c0-35.346-28.654-64-64-64s-64 28.654-64 64c0 35.346 28.654 64 64 64s64-28.654 64-64zM704 576c0-35.346-28.654-64-64-64s-64 28.654-64 64c0 35.346 28.654 64 64 64s64-28.654 64-64zM256 320h512v-64h-512v64z" />
<glyph unicode="&#xe6b6;" glyph-name="money" data-tags="money" d="M960 704v-512h-896v512h896zM1024 768h-1024v-640h1024v640zM512 640c108.8 0 192-83.2 192-192s-83.2-192-192-192h320v64h64v256h-64v64h-320zM320 448c0 108.8 83.2 192 192 192h-320v-64h-64v-256h64v-64h320c-108.8 0-192 83.2-192 192z" />
<glyph unicode="&#xe6b7;" glyph-name="package" data-tags="package" d="M512 960l-512-128v-640l512-256 512 256v640l-512 128zM512 896l134.4-32-377.6-121.6-147.2 51.2 390.4 102.4zM512 6.4l-448 224v518.4l192-64v-217.6l64-19.2v211.2l192-64v-588.8zM544 652.8l-172.8 57.6 396.8 121.6 153.6-38.4-377.6-140.8z" />
</font>
</defs>
</svg>
